Скачать через торрент музыку Asia - Коллекция, часть III: Live & Compilations - 1991-2011 бесплатно без регистрации torrent

Если у вас наблюдаются проблемы со скриншотами, переходом по ссылками, скачиванием торрентов - проблемы в блокировщике рекламы AdBlock. #хорошегоДня!


Статистика раздачи
Размер:  11.9 GB   |    Зарегистрирован:  4 года 9 месяцев   |    .torrent скачан:  29 раз   |   
Раздают:  1  
   
Загрузка...
 
Автор Сообщение

Galfimbul

avatar Galfimbul




LIVE & COMPILATIONS

1991-2010
(12 АЛЬБОМОВ - 28 CD)


Жанр: Progressive Rock, AOR | Страна: United Kingdom
Страны-производители дисков: EU Germany Italy Japan UK USA
Аудио кодек: FLAC | Тип рипа: image+.cue | Битрейт аудио: lossless

В настоящую подборку включены концертные и сборные (пост ниже) альбомы группы ASIA, состоящие из композиций, сыгранных и записанных коллективом в течение всей его музыкальной деятельности - без классификации по творческим периодам (информация об этом присутствует в описании каждого альбома).
Коллекция не претендует на всеохватность и будет пополняться по мере возможности и нахождения новых позиций.

LIVE

1991-2010
(6 АЛЬБОМОВ - 16 CD)


RE | Reissue - переиздание, перепечатка диска, выпущенного лейблом-правообладателем или лейблом, перекупившим права на издание данного диска. Может отличаться от оригинального издания дизайном, набором и порядком треков. Иногда в такие издания добавляют композиции, вошедшие в синглы и сборники, но не появившиеся на полноценных альбомах. Как правило, записаны без вмешательства в мастеринг, но если таковое имеет место быть, то попадают в категорию, находящуюся ниже.
RM | Remaster(ed) - ремастерированное переиздание диска, т.е. в разной степени подвергшееся изменению первоначального мастеринга.
SE | Special Edition - специальное издание. Преимущественно содержит добавочный контент (бонус-треки, видео), может отличаться списком и порядком треков. Как правило, отличается дизайном, оформлением и содержимым буклета (может содержать дополнительный буклет, постеры и т.п.) и, в некоторых случаях, типом бокса.
Коды стран, используемые в содержимом раздачи - названиях папок альбомов:
EU - European Union (EC)
IT - Italy
GB - United Kingdom (UK, England)
US - USA

LIVE IN MOSCOW (LIVE MOCKBA 09-X1-90)
Страна-производитель диска: USA
Год издания диска: 1991
Период творчества: ORIGINAL ASIA
Издатель (лейбл): Rhino Records
Номер по каталогу: R2 70377
Продолжительность: 01:15:20
Источник (релизер): Личная коллекция
Наличие сканов в содержимом раздачи: да
01. Time Again (5:36)
02. Sole Survivor (6:25)
03. Don''t Cry (5:06)
04. Keyboards Solo (Inc Video Killed the Radio Star) (5:28)
05. Only Time Will Tell (4:59)
06. Rock and Roll Dream (5:52)
07. Starless (3:45)
08. Book of Saturday (2:49)
09. The Smile Has Left Your Eyes (Parts I & II) (4:59)
10. The Heat Goes On (Inc Drum Solo) (7:24)
11. Go (4:49)
12. Heat of the Moment (5:19)
13. Open Your Eyes (7:33)
14. Kari-Anne (5:17)
Tracks 7 & 8 are "new versions of the King Crimson classics".
Track 14 is previously unreleased.

Recorded live at Olympijski Stadium, Moscow, USSR - November 1990.
Geoff Downes - Keyboards and Harmony Vocals
Carl Palmer - Drums and Percussion
Pat Thrall - Guitar and Harmony Vocals
John Wetton - Lead Voice, Bass Cuitar, Grand Piano (7), Acoustic Guitar (8)
Exact Audio Copy V1.0 beta 2 from 29. April 2011

EAC extraction logfile from 6. August 2012, 9:21

Asia / Live In Moscow

Used drive : _NEC DVD_RW ND-4571A Adapter: 0 ID: 1

Read mode : SecureUtilize accurate stream : YesDefeat audio cache : YesMake use of C2 pointers : No

Read offset correction : 48Overread into Lead-In and Lead-Out : NoFill up missing offset samples with silence : YesDelete leading and trailing silent blocks : NoNull samples used in CRC calculations : YesUsed interface : Native Win32 interface for Win NT & 2000

Used output format : User Defined EncoderSelected bitrate : 128 kBit/sQuality : HighAdd ID3 tag : NoCommand line compressor : C:\Program Files\Exact Audio Copy\FLAC\FLAC.EXEAdditional command line options : -V -8 -T "Date=%year%" -T "Genre=%genre%" %source%

TOC of the extracted CD

Track | Start | Length | Start sector | End sector --------------------------------------------------------- 1 | 0:00.33 | 5:35.62 | 33 | 25219 2 | 5:36.20 | 6:25.03 | 25220 | 54097 3 | 12:01.23 | 5:06.05 | 54098 | 77052 4 | 17:07.28 | 5:27.57 | 77053 | 101634 5 | 22:35.10 | 4:58.45 | 101635 | 124029 6 | 27:33.55 | 5:51.45 | 124030 | 150399 7 | 33:25.25 | 3:45.10 | 150400 | 167284 8 | 37:10.35 | 2:48.65 | 167285 | 179949 9 | 39:59.25 | 4:59.25 | 179950 | 202399 10 | 44:58.50 | 7:23.68 | 202400 | 235692 11 | 52:22.43 | 4:49.30 | 235693 | 257397 12 | 57:11.73 | 5:19.12 | 257398 | 281334 13 | 62:31.10 | 7:32.55 | 281335 | 315289 14 | 70:03.65 | 5:16.60 | 315290 | 339049

Range status and errors

Selected range

Filename D:\EAC\Asia - Live In Moscow.wav

Peak level 87.3 % Extraction speed 5.8 X Range quality 100.0 % Test CRC 25D8938C Copy CRC 25D8938C Copy OK

No errors occurred

AccurateRip summary

Track 1 accurately ripped (confidence 6) [C0D9A753] (AR v1)Track 2 accurately ripped (confidence 6) [14591DE0] (AR v1)Track 3 accurately ripped (confidence 6) [ECE6F158] (AR v1)Track 4 accurately ripped (confidence 6) [F167E23D] (AR v1)Track 5 accurately ripped (confidence 6) [74B6F738] (AR v1)Track 6 accurately ripped (confidence 6) [0F339F6C] (AR v1)Track 7 accurately ripped (confidence 6) [422B8E08] (AR v1)Track 8 accurately ripped (confidence 6) [B7FB346C] (AR v1)Track 9 accurately ripped (confidence 6) [373D8830] (AR v1)Track 10 accurately ripped (confidence 6) [37E0067B] (AR v1)Track 11 accurately ripped (confidence 6) [D6E5EA31] (AR v1)Track 12 accurately ripped (confidence 5) [CD2B741D] (AR v1)Track 13 accurately ripped (confidence 5) [6FD6CEB9] (AR v1)Track 14 accurately ripped (confidence 6) [72E917F0] (AR v1)

All tracks accurately ripped

End of status report

==== Log checksum 264360F123DF4F3D2E09DD3C3D3CCDECD642EC9B952A26A0B8F0F426BC57A714 ====

QUADRA - LIVE THROUGHOUT THE YEARS
Страна-производитель диска: EU
Год издания диска: 2008
Период творчества: ORIGINAL ASIA
Издатель (лейбл): Zoom Club Records | Mischief Music Ltd.
Номер по каталогу: ZCR85BOX | MMBOX12
Продолжительность (общая): 03:52:24
Источник (релизер): Личная коллекция
Наличие сканов в содержимом раздачи: да
Четырёхдисковый бокс-сет, состоящий из раннего концертного материала коллектива, в силу скромного (audience) качества записи навряд ли послужит усладой для аудиофила - в наибольшей степени он ценен как исторический документ, дающий уникальный шанс погрузиться в "живую" атмосферу выступлений группы на заре её творчества.
Comment:
Apparently Quadra is an official release. Perhaps it''s more accurate to term it a sanctioned release (seemingly by Carl Palmer). Whatever air of authenticity it''s got, make no bones about it, the constituent CDs are bootlegs (audience recording throughout). Just be mindful, however, if you''re trading.

Recording information:
Live at the Stanley Theatre, Pittsburgh, PA (04/25/1982)
Pine Knob, Detroit, MI (04/25/1982)
The Centrum, Worcester, MA (04/25/1982)
Live at the Stanley Theatre, Pittsburgh, PA (08/22/1983)
Pine Knob, Detroit, MI (08/22/1983)
The Centrum, Worcester, MA (08/22/1983)
Live at the Stanley Theatre, Pittsburgh, PA (09/1983)
Pine Knob, Detroit, MI (09/1983)
The Centrum, Worcester, MA (09/1983)
LIVE AT THE STANLEY THEATRE, PITTSBURGH, PA 25.04.82
Номер по каталогу: ZCR85BOX(D1) | MMBOX12
Продолжительность: 01:16:24
Треклист:
01. Without You (5:20)
02. Ancient / Steve Howe Acoustic Solo (4:09)
03. Clap (4:26)
04. Midnight Sun (6:56)
05. Only Time Will Tell (5:20)
06. The Smile Has Left Your Eyes (3:17)
07. Cutting It Fine (5:49)
08. Geoff Downes Keyboard Solo (3:35)
09. Wildest Dreams (5:54)
10. Here Comes the Feeling Featuring Carl Palmer Drum Solo (12:53)
11. Sole Survivor (8:40)
12. The Man with the Golden Arm (3:16)
13. Heat of the Moment (6:50)
Пожалуй, худшее качество записи изо всех четырёх дисков.
Из числа раритетов присутствует энергичная инструментальная вещь "The Man with the Golden Arm" (трек 12), нигде более не издававшаяся.
Geoff Downes - Keyboards
Steve Howe - Guitars
Carl Palmer - Drums
John Wetton - Bass, Vocals
Exact Audio Copy V0.99 prebeta 5 from 4. May 2009

EAC extraction logfile from 9. April 2010, 9:34

Asia / Quadra [CD 1]

Used drive : _NEC DVD_RW ND-4571A Adapter: 0 ID: 1

Read mode : SecureUtilize accurate stream : YesDefeat audio cache : YesMake use of C2 pointers : No

Read offset correction : 48Overread into Lead-In and Lead-Out : NoFill up missing offset samples with silence : YesDelete leading and trailing silent blocks : NoNull samples used in CRC calculations : YesUsed interface : Native Win32 interface for Win NT & 2000

Used output format : User Defined EncoderSelected bitrate : 128 kBit/sQuality : HighAdd ID3 tag : NoCommand line compressor : C:\Program Files\Exact Audio Copy\FLAC\FLAC.EXEAdditional command line options : -8 -V %s

TOC of the extracted CD

Track | Start | Length | Start sector | End sector --------------------------------------------------------- 1 | 0:00.00 | 5:19.40 | 0 | 23964 2 | 5:19.40 | 4:09.00 | 23965 | 42639 3 | 9:28.40 | 4:26.00 | 42640 | 62589 4 | 13:54.40 | 6:56.00 | 62590 | 93789 5 | 20:50.40 | 5:20.00 | 93790 | 117789 6 | 26:10.40 | 3:17.00 | 117790 | 132564 7 | 29:27.40 | 5:49.00 | 132565 | 158739 8 | 35:16.40 | 3:35.00 | 158740 | 174864 9 | 38:51.40 | 5:54.00 | 174865 | 201414 10 | 44:45.40 | 12:53.00 | 201415 | 259389 11 | 57:38.40 | 8:40.00 | 259390 | 298389 12 | 66:18.40 | 3:16.00 | 298390 | 313089 13 | 69:34.40 | 6:50.14 | 313090 | 343853

Range status and errors

Selected range

Filename D:\EAC\Asia - Quadra [CD 1].wav

Peak level 99.1 % Range quality 99.9 % Test CRC 49651B0A Copy CRC 49651B0A Copy OK

No errors occurred

End of status report
LIVE AT THE CENTRUM, WORCESTER, MA 22.08.83
Номер по каталогу: ZCR85BOX(D2) | MMBOX12
Продолжительность: 00:50:39
Треклист:
01. Wildest Dreams (5:36)
02. Time Again (5:38)
03. The Heat Goes On (4:57)
04. Eye to Eye (3:26)
05. Only Time Will Tell (5:27)
06. Geoff Downes Keyboard Solo (5:41)
07. Beginnings / Steve Howe Acoustic Solo (5:12)
08. Valley of Rocks (3:30)
09. Clap (7:24)
10. Midnight Sun (3:48)
Geoff Downes - Keyboards
Steve Howe - Guitars
Carl Palmer - Drums
John Wetton - Bass, Vocals
Exact Audio Copy V0.99 prebeta 5 from 4. May 2009

EAC extraction logfile from 9. April 2010, 10:30

Asia / Quadra [CD 2]

Used drive : _NEC DVD_RW ND-4571A Adapter: 0 ID: 1

Read mode : SecureUtilize accurate stream : YesDefeat audio cache : YesMake use of C2 pointers : No

Read offset correction : 48Overread into Lead-In and Lead-Out : NoFill up missing offset samples with silence : YesDelete leading and trailing silent blocks : NoNull samples used in CRC calculations : YesUsed interface : Native Win32 interface for Win NT & 2000

Used output format : User Defined EncoderSelected bitrate : 128 kBit/sQuality : HighAdd ID3 tag : NoCommand line compressor : C:\Program Files\Exact Audio Copy\FLAC\FLAC.EXEAdditional command line options : -8 -V %s

TOC of the extracted CD

Track | Start | Length | Start sector | End sector --------------------------------------------------------- 1 | 0:00.00 | 5:36.00 | 0 | 25199 2 | 5:36.00 | 5:38.35 | 25200 | 50584 3 | 11:14.35 | 4:56.40 | 50585 | 72824 4 | 16:11.00 | 3:26.00 | 72825 | 88274 5 | 19:37.00 | 5:27.00 | 88275 | 112799 6 | 25:04.00 | 5:41.00 | 112800 | 138374 7 | 30:45.00 | 5:12.29 | 138375 | 161803 8 | 35:57.29 | 3:30.20 | 161804 | 177573 9 | 39:27.49 | 7:23.55 | 177574 | 210853 10 | 46:51.29 | 3:48.33 | 210854 | 227986

Range status and errors

Selected range

Filename D:\EAC\Asia - Quadra [CD 2].wav

Peak level 99.5 % Range quality 99.9 % Test CRC B39C462E Copy CRC B39C462E Copy OK

No errors occurred

End of status report
LIVE AT THE CENTRUM, WORCESTER, MA 22.08.83
Номер по каталогу: ZCR85BOX(D3) | MMBOX12
Продолжительность: 00:51:07
Треклист:
01. Don''t Cry (4:54)
02. The Last to Know (5:01)
03. Open Your Eyes (7:33)
04. The Smile Has Left Your Eyes (3:24)
05. Here Comes the Feeling (4:54)
06. Carl Palmer Drum Solo (10:42)
07. Sole Survivor (7:27)
08. Heat of the Moment (7:13)
Geoff Downes - Keyboards
Steve Howe - Guitars
Carl Palmer - Drums
John Wetton - Bass, Vocals
Exact Audio Copy V0.99 prebeta 5 from 4. May 2009

EAC extraction logfile from 9. April 2010, 11:15

Asia / Quadra [CD 3]

Used drive : _NEC DVD_RW ND-4571A Adapter: 0 ID: 1

Read mode : SecureUtilize accurate stream : YesDefeat audio cache : YesMake use of C2 pointers : No

Read offset correction : 48Overread into Lead-In and Lead-Out : NoFill up missing offset samples with silence : YesDelete leading and trailing silent blocks : NoNull samples used in CRC calculations : YesUsed interface : Native Win32 interface for Win NT & 2000

Used output format : User Defined EncoderSelected bitrate : 128 kBit/sQuality : HighAdd ID3 tag : NoCommand line compressor : C:\Program Files\Exact Audio Copy\FLAC\FLAC.EXEAdditional command line options : -8 -V %s

TOC of the extracted CD

Track | Start | Length | Start sector | End sector --------------------------------------------------------- 1 | 0:00.00 | 4:53.50 | 0 | 22024 2 | 4:53.50 | 5:01.00 | 22025 | 44599 3 | 9:54.50 | 7:33.00 | 44600 | 78574 4 | 17:27.50 | 3:24.00 | 78575 | 93874 5 | 20:51.50 | 4:54.00 | 93875 | 115924 6 | 25:45.50 | 10:42.00 | 115925 | 164074 7 | 36:27.50 | 7:27.00 | 164075 | 197599 8 | 43:54.50 | 7:13.00 | 197600 | 230074

Range status and errors

Selected range

Filename D:\EAC\Asia - Quadra [CD 3].wav

Peak level 99.5 % Range quality 100.0 % Test CRC 7AF13730 Copy CRC 7AF13730 Copy OK

No errors occurred

End of status report
LIVE AT PINE KNOB, DETROIT, SEPTEMBER 1983
Номер по каталогу: ZCRCD50 | MMBOX12
Продолжительность: 00:54:14
Треклист:
01. Intro (0:32)
02. Time Again (5:44)
03. Wildest Dream (5:18)
04. Without You (5:48)
05. Midnight Sun (3:43)
06. Only Time Will Tell (5:11)
07. Daylight (3:47)
08. The Smile Has Left Your Eyes (5:28)
09. Keyboard Solo (2:55)
10. Don''t Cry (3:57)
11. Open Your Eyes (7:19)
12. Ride Easy (4:32)
Присутствуют концертные версии композиций "Daylight" и "Ride Easy" (треки 7 и 12), студийные версии которых не вошли ни в один из "номерных" альбомов группы.
Примечательно, что в интервью на выпущенном в 2007 году DVD "Fantasia: Live in Tokyo", вокалист Джон Уэттон отметил, что "Ride Easy" является одной из его любимых песен ASIA.
Geoff Downes - Keyboards
Steve Howe - Guitars
Carl Palmer - Drums
John Wetton - Bass, Vocals
Exact Audio Copy V0.99 prebeta 5 from 4. May 2009

EAC extraction logfile from 9. April 2010, 11:48

Asia / Quadra [CD 4]

Used drive : _NEC DVD_RW ND-4571A Adapter: 0 ID: 1

Read mode : SecureUtilize accurate stream : YesDefeat audio cache : YesMake use of C2 pointers : No

Read offset correction : 48Overread into Lead-In and Lead-Out : NoFill up missing offset samples with silence : YesDelete leading and trailing silent blocks : NoNull samples used in CRC calculations : YesUsed interface : Native Win32 interface for Win NT & 2000

Used output format : User Defined EncoderSelected bitrate : 128 kBit/sQuality : HighAdd ID3 tag : NoCommand line compressor : C:\Program Files\Exact Audio Copy\FLAC\FLAC.EXEAdditional command line options : -8 -V %s

TOC of the extracted CD

Track | Start | Length | Start sector | End sector --------------------------------------------------------- 1 | 0:00.00 | 0:32.10 | 0 | 2409 2 | 0:32.10 | 5:44.30 | 2410 | 28239 3 | 6:16.40 | 5:17.50 | 28240 | 52064 4 | 11:34.15 | 5:48.25 | 52065 | 78189 5 | 17:22.40 | 3:43.00 | 78190 | 94914 6 | 21:05.40 | 5:11.00 | 94915 | 118239 7 | 26:16.40 | 3:47.30 | 118240 | 135294 8 | 30:03.70 | 5:27.45 | 135295 | 159864 9 | 35:31.40 | 2:55.00 | 159865 | 172989 10 | 38:26.40 | 3:57.00 | 172990 | 190764 11 | 42:23.40 | 7:19.00 | 190765 | 223689 12 | 49:42.40 | 4:32.04 | 223690 | 244093

Range status and errors

Selected range

Filename D:\EAC\Asia - Quadra [CD 4].wav

Peak level 99.5 % Range quality 99.9 % Test CRC 49DDE163 Copy CRC 49DDE163 Copy OK

No errors occurred

End of status report

ACOUSTIC & ELECTRIC
Страна-производитель диска: USA
Год издания диска: 2008
Период творчества: ALL
Издатель (лейбл): Fuel 2000 Records, Inc.
Номер по каталогу: 302 061 730 2
Продолжительность: 01:03:02
Источник (релизер): Личная коллекция
Наличие сканов в содержимом раздачи: да
Треклист:
01. The Heat Goes On (4:29)
02. Who Will Stop the Rain (4:39)
03. Cutting It Fine (2:07)
04. Video Killed the Radio Star (3:04)
05. Heat of the Moment (3:51)
06. Open Your Eyes (7:24)
07. Lay Down Your Arms (4:32)
08. Voice of America (5:06)
09. Different Worlds (5:03)
10. Back in Town (3:40)
11. Summer (3:29)
12. Arena (5:17)
13. Only Time Will Tell (3:53)
14. Sole Survivor (6:28)
Подборка композиций группы эпохи Пэйна в "живом" исполнении - "электрическом" и unplugged, куда неожиданном образом затесались две вещи (треки 6 и 14) с "Live in Moscow" (1991).
Tracks 6 & 14 Recorded Live in Olympijski Stadium, Moskow, USSR - November 1990.
incomplete information
Geoff Downes - Keyboards
John Payne - Lead Vocals, Bass, Guitar
All Pitrelli - Guitars
Michael Sturgis - Drums

tracks 6 & 14
Geoff Downes - Keyboards, Harmony Vocals
Carl Palmer - Drums, Percussion
Pat Thrall - Guitar, Harmony Vocals
John Wetton - Lead Voice, Bass
Exact Audio Copy V0.99 prebeta 5 from 4. May 2009

EAC extraction logfile from 26. March 2010, 15:09

Asia / Acoustic & Electric

Used drive : _NEC DVD_RW ND-4571A Adapter: 0 ID: 1

Read mode : SecureUtilize accurate stream : YesDefeat audio cache : YesMake use of C2 pointers : No

Read offset correction : 48Overread into Lead-In and Lead-Out : NoFill up missing offset samples with silence : YesDelete leading and trailing silent blocks : NoNull samples used in CRC calculations : YesUsed interface : Native Win32 interface for Win NT & 2000

Used output format : User Defined EncoderSelected bitrate : 128 kBit/sQuality : HighAdd ID3 tag : NoCommand line compressor : C:\Program Files\Exact Audio Copy\FLAC\FLAC.EXEAdditional command line options : -8 -V %s

TOC of the extracted CD

Track | Start | Length | Start sector | End sector --------------------------------------------------------- 1 | 0:00.00 | 4:28.72 | 0 | 20171 2 | 4:28.72 | 4:39.19 | 20172 | 41115 3 | 9:08.16 | 2:07.10 | 41116 | 50650 4 | 11:15.26 | 3:03.50 | 50651 | 64425 5 | 14:19.01 | 3:50.51 | 64426 | 81726 6 | 18:09.52 | 7:23.74 | 81727 | 115025 7 | 25:33.51 | 4:31.73 | 115026 | 135423 8 | 30:05.49 | 5:05.63 | 135424 | 158361 9 | 35:11.37 | 5:02.63 | 158362 | 181074 10 | 40:14.25 | 3:40.35 | 181075 | 197609 11 | 43:54.60 | 3:29.37 | 197610 | 213321 12 | 47:24.22 | 5:16.63 | 213322 | 237084 13 | 52:41.10 | 3:53.01 | 237085 | 254560 14 | 56:34.11 | 6:27.74 | 254561 | 283659

Range status and errors

Selected range

Filename D:\EAC\Asia - Acoustic & Electric.wav

Peak level 99.8 % Range quality 100.0 % Test CRC 46F79232 Copy CRC 46F79232 Copy OK

No errors occurred

End of status report

SPIRIT OF THE NIGHT: THE PHOENIX TOUR LIVE IN CAMBRIDGE 2009
Страна-производитель диска: Italy
Год издания диска: 2010.10.15
Период творчества: ORIGINAL ASIA
Издатель (лейбл): Frontiers Records
Номер по каталогу: FR CDVD 481
Продолжительность: 01:17:20
Источник (релизер): Личная коллекция
Наличие сканов в содержимом раздачи: да
Доп. информация: DVD из этого издания на rutracker.org
Треклист:
01. Only Time Will Tell (4:54)
02. Time Again (5:38)
03. An Extraordinary Life (5:17)
04. My Own Time (6:14)
05. Open Your Eyes (7:05)
06. Fanfare for the Common Man (9:08)
07. Here Comes the Feeling (6:03)
08. Never Again (5:07)
09. The Heat Goes On (5:23)
10. Sole Survivor (6:19)
11. Don''t Cry (4:28)
12. Heat of the Moment (6:56)
bonus track
13. Midnight Sun (4:47)
Отличие от японского издания (ниже):
• иной бонус-трек "Midnight Sun" (трек 13)

Recorded Live at the Cambridge Rock Festival - 9th August 2009.
Bonus Track Recorded Live on July 06, 2007 in Detroit, Michigan.
Geoffrey Downes - Keyboards, Backing Vocals
Steve Howe - Guitars, Backing Vocals
Carl Palmer - Drums
John Wetton - Lead Vocals, Bass & Acoustic Guitars

Produced by Mike Paxman
Recorded by Steve Rispin
Mixed by Mark ''Tufty'' Evans
Mastered by SecondWave
Artwork by Karen Gladwell
Logos, lettering and Rhoenix paiting by and © Roger Dean
Exact Audio Copy V1.0 beta 2 from 29. April 2011

EAC extraction logfile from 26. January 2012, 9:48

Asia / Spirit Of The Night (Special Edition Box Set Live CD&DVD)

Used drive : _NEC DVD_RW ND-4571A Adapter: 0 ID: 1

Read mode : SecureUtilize accurate stream : YesDefeat audio cache : YesMake use of C2 pointers : No

Read offset correction : 48Overread into Lead-In and Lead-Out : NoFill up missing offset samples with silence : YesDelete leading and trailing silent blocks : NoNull samples used in CRC calculations : YesUsed interface : Native Win32 interface for Win NT & 2000

Used output format : User Defined EncoderSelected bitrate : 128 kBit/sQuality : HighAdd ID3 tag : NoCommand line compressor : C:\Program Files\Exact Audio Copy\FLAC\FLAC.EXEAdditional command line options : -V -8 -T "Date=%year%" -T "Genre=%genre%" %source%

TOC of the extracted CD

Track | Start | Length | Start sector | End sector --------------------------------------------------------- 1 | 0:00.00 | 4:53.63 | 0 | 22037 2 | 4:53.63 | 5:38.28 | 22038 | 47415 3 | 10:32.16 | 5:17.32 | 47416 | 71222 4 | 15:49.48 | 6:14.27 | 71223 | 99299 5 | 22:04.00 | 7:05.15 | 99300 | 131189 6 | 29:09.15 | 9:07.55 | 131190 | 172269 7 | 38:16.70 | 6:02.59 | 172270 | 199478 8 | 44:19.54 | 5:07.15 | 199479 | 222518 9 | 49:26.69 | 5:23.18 | 222519 | 246761 10 | 54:50.12 | 6:19.21 | 246762 | 275207 11 | 61:09.33 | 4:27.71 | 275208 | 295303 12 | 65:37.29 | 6:55.69 | 295304 | 326497 13 | 72:33.23 | 4:46.57 | 326498 | 348004

Range status and errors

Selected range

Filename D:\EAC\Asia - Spirit Of The Night (Special Edition Box Set Live CD&DVD).wav

Peak level 100.0 % Extraction speed 4.4 X Range quality 99.9 % Test CRC E301F823 Copy CRC E301F823 Copy OK

No errors occurred

AccurateRip summary

Track 1 accurately ripped (confidence 4) [460F575C] (AR v1)Track 2 accurately ripped (confidence 4) [107A1A08] (AR v1)Track 3 accurately ripped (confidence 4) [81275765] (AR v1)Track 4 accurately ripped (confidence 4) [622A8284] (AR v1)Track 5 accurately ripped (confidence 4) [0F57B398] (AR v1)Track 6 accurately ripped (confidence 4) [A13E9C2A] (AR v1)Track 7 accurately ripped (confidence 4) [240A9698] (AR v1)Track 8 accurately ripped (confidence 4) [27FF789C] (AR v1)Track 9 accurately ripped (confidence 4) [B4868C4D] (AR v1)Track 10 accurately ripped (confidence 4) [9CE7D4FD] (AR v1)Track 11 accurately ripped (confidence 4) [7BDEECB6] (AR v1)Track 12 accurately ripped (confidence 4) [6E67D135] (AR v1)Track 13 accurately ripped (confidence 4) [444E7292] (AR v1)

All tracks accurately ripped

End of status report

==== Log checksum 0B7C85CE3C2A86C342E5B667690FE251269D791812673774F020DF91B85632B3 ====
SPIRIT OF THE NIGHT: THE PHOENIX TOUR LIVE IN CAMBRIDGE 2009
Страна-производитель диска: Japan
Год издания диска: 2010
Период творчества: ORIGINAL ASIA
Издатель (лейбл): Frontiers Records | King Record
Номер по каталогу: KICP-1471
Продолжительность: 01:17:18
Источник (релизер): slonyavaya
Наличие сканов в содержимом раздачи: да
Треклист:
01. Only Time Will Tell (4:54)
02. Time Again (5:38)
03. An Extraordinary Life (5:17)
04. My Own Time (6:14)
05. Open Your Eyes (7:05)
06. Fanfare for the Common Man (9:08)
07. Here Comes the Feeling (6:03)
08. Never Again (5:07)
09. The Heat Goes On (5:23)
10. Sole Survivor (6:19)
11. Don''t Cry (4:28)
12. Heat of the Moment (6:56)
bonus track
13. Starless (4:45)
Отличие от итальянского издания (выше):
• иной бонус-трек "Starless" (трек 13)

Recorded Live at the Cambridge Rock Festival - 9th August 2009.
Bonus Track Recorded Live on June 13, 2007 in Sarasota, Florida.
Geoffrey Downes - Keyboards, Backing Vocals
Steve Howe - Guitars, Backing Vocals
Carl Palmer - Drums
John Wetton - Lead Vocals, Bass & Acoustic Guitars

Produced by Mike Paxman
Recorded by Steve Rispin
Mixed by Mark ''Tufty'' Evans
Mastered by SecondWave
Artwork by Karen Gladwell
Logos, lettering and Rhoenix paiting by and © Roger Dean
Exact Audio Copy V0.99 prebeta 4 from 23. January 2008

Отчёт EAC об извлечении, выполненном 26. мая 2011, 20:57

Asia / Spirit Of The Night

Дисковод: HL-DT-STDVDRAM GP08LU30 Adapter: 1 ID: 0

Режим чтения : ДостоверностьИспользование точного потока : ДаОтключение кэша аудио : ДаИспользование указателей C2 : Нет

Коррекция смещения при чтении : 6Способность читать области Lead-in и Lead-out : НетЗаполнение пропущенных сэмплов тишиной : ДаУдаление блоков с тишиной в начале и конце : НетПри вычислениях CRC использовались нулевые сэмплы : ДаИнтерфейс : Встроенный Win32-интерфейс для Win NT/2000

Выходной формат : Внутренние WAV-операцииФормат сэмплов : 44.100 Гц; 16 бит; стерео

TOC извлечённого CD

Трек | Старт | Длительность | Начальный сектор | Конечный сектор --------------------------------------------------------------------- 1 | 0:00.00 | 4:53.63 | 0 | 22037 2 | 4:53.63 | 5:38.28 | 22038 | 47415 3 | 10:32.16 | 5:17.32 | 47416 | 71222 4 | 15:49.48 | 6:14.27 | 71223 | 99299 5 | 22:04.00 | 7:05.15 | 99300 | 131189 6 | 29:09.15 | 9:07.55 | 131190 | 172269 7 | 38:16.70 | 6:02.59 | 172270 | 199478 8 | 44:19.54 | 5:07.15 | 199479 | 222518 9 | 49:26.69 | 5:23.18 | 222519 | 246761 10 | 54:50.12 | 6:19.21 | 246762 | 275207 11 | 61:09.33 | 4:27.71 | 275208 | 295303 12 | 65:37.29 | 6:55.69 | 295304 | 326497 13 | 72:33.23 | 4:44.56 | 326498 | 347853

Характеристики диапазона извлечения и сообщения об ошибках

Выбранный диапазон

Имя файла C:\Users\Коля\Music\Asia\Spirit Of The Night CD\Asia - Spirit Of The Night.wav

Пиковый уровень 100.0 % Качество диапазона 100.0 % CRC копии F42B3985 Копирование... OK

Ошибок не произошло

Конец отчёта

LIVE 3 DOUBLE CDs
Страна-производитель диска: UK
Год издания диска: 2010
Период творчества: DOWNES-PAYNE ERA
Издатель (лейбл): Floating World Records
Номер по каталогу: 0805772900622
Продолжительность (общая): 04:54:51
Источник (релизер): Личная коллекция
Наличие сканов в содержимом раздачи: да
LIVE IN OSAKA, JAPAN - 1992
Продолжительность: 01:35:21
Disc One
Продолжительность: 00:45:24
Треклист:
01. Go (5:21)
02. Band Intro (0:48)
03. Lay Down Your Arms (4:27)
04. Love Under Fire (6:05)
05. Rock and Roll Dreams (7:12)
06. Geoff Downes Solo (1:59)
07. Video Kills the Radio Star (2:11)
08. Little Rich Boy (4:55)
09. Voice of America (5:28)
10. Aqua Part 1 (2:11)
11. Who Will Stop the Rain (4:47)
Disc Two
Продолжительность: 00:49:57
Треклист:
01. Wildest Dreams (5:54)
02. Back in Town (3:56)
03. Don''t Cry (4:01)
04. Some Day (8:11)
05. Steve Howe Solo (6:25)
06. The Voice of Reason (6:10)
07. Only Time Will Tell (4:54)
08. The Heat Goes On (5:06)
09. A Far Cry (5:19)
Vinny Burns - Guitars and Vocals
Geoff Downes - Keyboards and Vocals
Steve Howe - Guitars and Vocals
John Payne - Lead Vocals and Bass
Trevor Thornton - Drums
Exact Audio Copy V1.0 beta 2 from 29. April 2011

EAC extraction logfile from 30. March 2012, 10:52

Asia / Live Osaka - Japan Disc 1

Used drive : _NEC DVD_RW ND-4571A Adapter: 0 ID: 1

Read mode : SecureUtilize accurate stream : YesDefeat audio cache : YesMake use of C2 pointers : No

Read offset correction : 48Overread into Lead-In and Lead-Out : NoFill up missing offset samples with silence : YesDelete leading and trailing silent blocks : NoNull samples used in CRC calculations : YesUsed interface : Native Win32 interface for Win NT & 2000

Used output format : User Defined EncoderSelected bitrate : 128 kBit/sQuality : HighAdd ID3 tag : NoCommand line compressor : C:\Program Files\Exact Audio Copy\FLAC\FLAC.EXEAdditional command line options : -V -8 -T "Date=%year%" -T "Genre=%genre%" %source%

TOC of the extracted CD

Track | Start | Length | Start sector | End sector --------------------------------------------------------- 1 | 0:00.00 | 5:20.62 | 0 | 24061 2 | 5:20.62 | 0:47.73 | 24062 | 27659 3 | 6:08.60 | 4:27.10 | 27660 | 47694 4 | 10:35.70 | 6:05.17 | 47695 | 75086 5 | 16:41.12 | 7:11.40 | 75087 | 107451 6 | 23:52.52 | 1:59.28 | 107452 | 116404 7 | 25:52.05 | 2:10.47 | 116405 | 126201 8 | 28:02.52 | 4:54.50 | 126202 | 148301 9 | 32:57.27 | 5:27.73 | 148302 | 172899 10 | 38:25.25 | 2:11.07 | 172900 | 182731 11 | 40:36.32 | 4:47.50 | 182732 | 204306

Range status and errors

Selected range

Filename D:\EAC\Asia - Live Osaka - Japan Disc 1.wav

Peak level 98.8 % Extraction speed 4.7 X Range quality 100.0 % Test CRC E8F70623 Copy CRC E8F70623 Copy OK

No errors occurred

AccurateRip summary

Track 1 cannot be verified as accurate (confidence 6) [FF5EFF2D], AccurateRip returned [7698E5C9] (AR v2)Track 2 cannot be verified as accurate (confidence 6) [697248DE], AccurateRip returned [936BA52E] (AR v2)Track 3 cannot be verified as accurate (confidence 6) [2EFF9C33], AccurateRip returned [AC42109E] (AR v2)Track 4 cannot be verified as accurate (confidence 6) [00A3B67B], AccurateRip returned [826AD15C] (AR v2)Track 5 cannot be verified as accurate (confidence 6) [5A22CEAF], AccurateRip returned [536A0154] (AR v2)Track 6 cannot be verified as accurate (confidence 6) [7D061894], AccurateRip returned [DA3C0823] (AR v2)Track 7 cannot be verified as accurate (confidence 6) [237A6570], AccurateRip returned [DFF75099] (AR v2)Track 8 cannot be verified as accurate (confidence 6) [E9899424], AccurateRip returned [9FC2ECFB] (AR v2)Track 9 cannot be verified as accurate (confidence 6) [AC9AE247], AccurateRip returned [A4900640] (AR v2)Track 10 cannot be verified as accurate (confidence 6) [6017EBA8], AccurateRip returned [87863871] (AR v2)Track 11 cannot be verified as accurate (confidence 6) [1C992D22], AccurateRip returned [DDA0F7FD] (AR v2)

No tracks could be verified as accurateYou may have a different pressing from the one(s) in the database

End of status report

==== Log checksum 58116FE40B7C99581753A3C394BC41259B732C70327A5441D1E4AA06D5C5C604 ====
Exact Audio Copy V1.0 beta 2 from 29. April 2011

EAC extraction logfile from 30. March 2012, 11:22

Asia / Live Osaka - Japan Disc 2

Used drive : _NEC DVD_RW ND-4571A Adapter: 0 ID: 1

Read mode : SecureUtilize accurate stream : YesDefeat audio cache : YesMake use of C2 pointers : No

Read offset correction : 48Overread into Lead-In and Lead-Out : NoFill up missing offset samples with silence : YesDelete leading and trailing silent blocks : NoNull samples used in CRC calculations : YesUsed interface : Native Win32 interface for Win NT & 2000

Used output format : User Defined EncoderSelected bitrate : 128 kBit/sQuality : HighAdd ID3 tag : NoCommand line compressor : C:\Program Files\Exact Audio Copy\FLAC\FLAC.EXEAdditional command line options : -V -8 -T "Date=%year%" -T "Genre=%genre%" %source%

TOC of the extracted CD

Track | Start | Length | Start sector | End sector --------------------------------------------------------- 1 | 0:00.00 | 5:53.70 | 0 | 26544 2 | 5:53.70 | 3:55.57 | 26545 | 44226 3 | 9:49.52 | 4:01.35 | 44227 | 62336 4 | 13:51.12 | 8:11.30 | 62337 | 99191 5 | 22:02.42 | 6:25.20 | 99192 | 128086 6 | 28:27.62 | 6:10.18 | 128087 | 155854 7 | 34:38.05 | 4:53.60 | 155855 | 177889 8 | 39:31.65 | 5:05.50 | 177890 | 200814 9 | 44:37.40 | 5:19.50 | 200815 | 224789

Range status and errors

Selected range

Filename D:\EAC\Asia - Live Osaka - Japan Disc 2.wav

Peak level 98.8 % Extraction speed 4.8 X Range quality 100.0 % Test CRC 82FEFE77 Copy CRC 82FEFE77 Copy OK

No errors occurred

AccurateRip summary

Track 1 cannot be verified as accurate (confidence 6) [6D9FDBBF], AccurateRip returned [930A6EDD] (AR v2)Track 2 cannot be verified as accurate (confidence 6) [CE7677F8], AccurateRip returned [679F2AC5] (AR v2)Track 3 cannot be verified as accurate (confidence 6) [67C2F46A], AccurateRip returned [6CAE15DC] (AR v2)Track 4 cannot be verified as accurate (confidence 6) [9E47BFF3], AccurateRip returned [062BED28] (AR v2)Track 5 cannot be verified as accurate (confidence 6) [376514F9], AccurateRip returned [D438D13C] (AR v2)Track 6 cannot be verified as accurate (confidence 6) [E4E77C0A], AccurateRip returned [4B40741D] (AR v2)Track 7 cannot be verified as accurate (confidence 5) [8F994C3F], AccurateRip returned [5D51ACEC] (AR v2)Track 8 cannot be verified as accurate (confidence 6) [7B37D55B], AccurateRip returned [AA1D6A5C] (AR v2)Track 9 cannot be verified as accurate (confidence 6) [1B89AFB6], AccurateRip returned [B1EAE29B] (AR v2)

No tracks could be verified as accurateYou may have a different pressing from the one(s) in the database

End of status report

==== Log checksum 7C9AFC890C1E7A85514F6F792404A0BDB2D20549D12BD5674D85B4A14ADE1AD2 ====
LIVE IN KOLN, GERMANY - 5TH OCTOBER, 1994
Продолжительность: 01:29:40
Disc One
Продолжительность: 00:56:38
Треклист:
01. Go (4:54)
02. Back in Town (4:09)
03. Sad Situation (5:15)
04. Remembrance Day (4:29)
05. Someday (6:54)
06. The Heat Goes On (5:45)
07. Anytime (4:55)
08. Sole Survivor (8:27)
09. Summer (2:51)
10. Feels Like Love (4:06)
11. Little Rich Boy (4:53)
Disc Two
Продолжительность: 00:33:02
Треклист:
01. Desire (6:45)
02. Who Will Stop the Rain (5:22)
03. Military Man (6:24)
04. Only Time Will Tell (7:28)
05. Heat of the Moment (7:03)
Geoff Downes - Keyboards
Aziz Ibrahim - Guitars
John Payne - Lead Vocals, Bass and Guitars
Michael Sturgis - Drums
Exact Audio Copy V1.0 beta 2 from 29. April 2011

EAC extraction logfile from 30. March 2012, 12:41

Asia / Live Koln - Germany CD1

Used drive : _NEC DVD_RW ND-4571A Adapter: 0 ID: 1

Read mode : SecureUtilize accurate stream : YesDefeat audio cache : YesMake use of C2 pointers : No

Read offset correction : 48Overread into Lead-In and Lead-Out : NoFill up missing offset samples with silence : YesDelete leading and trailing silent blocks : NoNull samples used in CRC calculations : YesUsed interface : Native Win32 interface for Win NT & 2000

Used output format : User Defined EncoderSelected bitrate : 128 kBit/sQuality : HighAdd ID3 tag : NoCommand line compressor : C:\Program Files\Exact Audio Copy\FLAC\FLAC.EXEAdditional command line options : -V -8 -T "Date=%year%" -T "Genre=%genre%" %source%

TOC of the extracted CD

Track | Start | Length | Start sector | End sector --------------------------------------------------------- 1 | 0:00.00 | 4:53.62 | 0 | 22036 2 | 4:53.62 | 4:09.28 | 22037 | 40739 3 | 9:03.15 | 5:15.30 | 40740 | 64394 4 | 14:18.45 | 4:29.15 | 64395 | 84584 5 | 18:47.60 | 6:54.02 | 84585 | 115636 6 | 25:41.62 | 5:44.73 | 115637 | 141509 7 | 31:26.60 | 4:55.02 | 141510 | 163636 8 | 36:21.62 | 8:27.00 | 163637 | 201661 9 | 44:48.62 | 2:50.73 | 201662 | 214484 10 | 47:39.60 | 4:05.40 | 214485 | 232899 11 | 51:45.25 | 4:53.32 | 232900 | 254906

Range status and errors

Selected range

Filename D:\EAC\Asia - Live Koln - Germany CD1.wav

Peak level 99.7 % Extraction speed 5.0 X Range quality 100.0 % Test CRC E51CB6C6 Copy CRC E51CB6C6 Copy OK

No errors occurred

AccurateRip summary

Track 1 cannot be verified as accurate (confidence 5) [0AECEECD], AccurateRip returned [BF4C3268] (AR v2)Track 2 cannot be verified as accurate (confidence 5) [0DCD32D7], AccurateRip returned [A7F2E053] (AR v2)Track 3 cannot be verified as accurate (confidence 5) [06289B41], AccurateRip returned [7CB8F503] (AR v2)Track 4 cannot be verified as accurate (confidence 5) [30EF203A], AccurateRip returned [BA6EB122] (AR v2)Track 5 cannot be verified as accurate (confidence 5) [822F4894], AccurateRip returned [1751C9D9] (AR v2)Track 6 cannot be verified as accurate (confidence 5) [205E57C5], AccurateRip returned [9E98E054] (AR v2)Track 7 cannot be verified as accurate (confidence 5) [DDE32BBC], AccurateRip returned [7585854A] (AR v2)Track 8 cannot be verified as accurate (confidence 5) [D32EE86C], AccurateRip returned [FB182AB6] (AR v2)Track 9 cannot be verified as accurate (confidence 5) [1C56675C], AccurateRip returned [8AD8DA07] (AR v2)Track 10 cannot be verified as accurate (confidence 5) [1CEB25F4], AccurateRip returned [6C100729] (AR v2)Track 11 cannot be verified as accurate (confidence 4) [FE95A7C8], AccurateRip returned [815D823B] (AR v2)

No tracks could be verified as accurateYou may have a different pressing from the one(s) in the database

End of status report

==== Log checksum B11D3AF5FD3667CEBC7E11F794885ADB5BBAFC37576C04B0EA30BD0B93F6AB47 ====
Exact Audio Copy V1.0 beta 2 from 29. April 2011

EAC extraction logfile from 30. March 2012, 13:02

Asia / Live Koln - Germany CD2

Used drive : _NEC DVD_RW ND-4571A Adapter: 0 ID: 1

Read mode : SecureUtilize accurate stream : YesDefeat audio cache : YesMake use of C2 pointers : No

Read offset correction : 48Overread into Lead-In and Lead-Out : NoFill up missing offset samples with silence : YesDelete leading and trailing silent blocks : NoNull samples used in CRC calculations : YesUsed interface : Native Win32 interface for Win NT & 2000

Used output format : User Defined EncoderSelected bitrate : 128 kBit/sQuality : HighAdd ID3 tag : NoCommand line compressor : C:\Program Files\Exact Audio Copy\FLAC\FLAC.EXEAdditional command line options : -V -8 -T "Date=%year%" -T "Genre=%genre%" %source%

TOC of the extracted CD

Track | Start | Length | Start sector | End sector --------------------------------------------------------- 1 | 0:00.00 | 6:44.45 | 0 | 30344 2 | 6:44.45 | 5:22.17 | 30345 | 54511 3 | 12:06.62 | 6:24.13 | 54512 | 83324 4 | 18:31.00 | 7:27.65 | 83325 | 116914 5 | 25:58.65 | 7:03.35 | 116915 | 148674

Range status and errors

Selected range

Filename D:\EAC\Asia - Live Koln - Germany CD2.wav

Peak level 99.8 % Extraction speed 4.3 X Range quality 100.0 % Test CRC 99724F12 Copy CRC 99724F12 Copy OK

No errors occurred

AccurateRip summary

Track 1 cannot be verified as accurate (confidence 5) [13B906B3], AccurateRip returned [C6A33CEE] (AR v2)Track 2 cannot be verified as accurate (confidence 5) [C7AA8DA5], AccurateRip returned [26B86A7A] (AR v2)Track 3 cannot be verified as accurate (confidence 5) [05CE9AF4], AccurateRip returned [A5E29175] (AR v2)Track 4 cannot be verified as accurate (confidence 5) [34E9DEF2], AccurateRip returned [FC6C6A17] (AR v2)Track 5 cannot be verified as accurate (confidence 5) [8A30F936], AccurateRip returned [29FE2959] (AR v2)

No tracks could be verified as accurateYou may have a different pressing from the one(s) in the database

End of status report

==== Log checksum 5143CA751E770BBC2FC19FB7923B51B7A64BB9B8DB9FE5BDF6B18BAB10DDA14D ====
LIVE IN PHILADELPHIA, USA - 21ST NOVEMBER, 1992
Продолжительность: 01:49:50
Disc One
Продолжительность: 01:07:45
Треклист:
01. Go ((5:34)
02. Geoff Downes Introduces the Band… (1:12)
03. Lay Down Your Arms (4:41)
04. Rock and Roll Dream (7:34)
05. Love Under Fire (6:02)
06. Little Rich Boy (7:27)
07. Geoff Downes Introduces Steve Howe… (1:21)
08. Aqua Part 1 (2:18)
09. Then Heat Goes On (5:49)
10. Don''t Cry (4:25)
11. Someday (7:21)
12. Acoustic Guitar Solo (Galliard, Mood for a Day, The Ancient, The Clap) (14:00)
Disc Two
Продолжительность: 00:42:05
Треклист:
01. Wildest Dreams (5:36)
02. Back in Town (4:03)
03. Open Your Eyes (7:23)
04. Who Will Stop the Rain (4:37)
05. Only Time Will Tell (5:35)
06. Sole Survivor (7:21)
07. Heat of the Moment (7:29)
Vinny Burns - Guitar
Geoff Downes - Keyboards
Steve Howe - Guitar
John Payne - Lead Vocals, Bass
Trevor Thornton - Drums
Exact Audio Copy V1.0 beta 2 from 29. April 2011

EAC extraction logfile from 30. March 2012, 13:50

Asia / Live Philadelphia - USA CD1

Used drive : _NEC DVD_RW ND-4571A Adapter: 0 ID: 1

Read mode : SecureUtilize accurate stream : YesDefeat audio cache : YesMake use of C2 pointers : No

Read offset correction : 48Overread into Lead-In and Lead-Out : NoFill up missing offset samples with silence : YesDelete leading and trailing silent blocks : NoNull samples used in CRC calculations : YesUsed interface : Native Win32 interface for Win NT & 2000

Used output format : User Defined EncoderSelected bitrate : 128 kBit/sQuality : HighAdd ID3 tag : NoCommand line compressor : C:\Program Files\Exact Audio Copy\FLAC\FLAC.EXEAdditional command line options : -V -8 -T "Date=%year%" -T "Genre=%genre%" %source%

TOC of the extracted CD

Track | Start | Length | Start sector | End sector --------------------------------------------------------- 1 | 0:00.00 | 5:33.55 | 0 | 25029 2 | 5:33.55 | 1:12.10 | 25030 | 30439 3 | 6:45.65 | 4:41.22 | 30440 | 51536 4 | 11:27.12 | 7:33.73 | 51537 | 85584 5 | 19:01.10 | 6:02.37 | 85585 | 112771 6 | 25:03.47 | 7:27.08 | 112772 | 146304 7 | 32:30.55 | 1:20.52 | 146305 | 152356 8 | 33:51.32 | 2:18.23 | 152357 | 162729 9 | 36:09.55 | 5:49.27 | 162730 | 188931 10 | 41:59.07 | 4:25.03 | 188932 | 208809 11 | 46:24.10 | 7:21.25 | 208810 | 241909 12 | 53:45.35 | 14:00.35 | 241910 | 304944

Range status and errors

Selected range

Filename D:\EAC\Asia - Live Philadelphia - USA CD1.wav

Peak level 98.8 % Extraction speed 3.2 X Range quality 99.8 % Test CRC 5F7F4902 Copy CRC 5F7F4902 Copy OK

No errors occurred

AccurateRip summary

Track 1 cannot be verified as accurate (confidence 2) [F090E308], AccurateRip returned [953E2ACD] (AR v2)Track 2 cannot be verified as accurate (confidence 1) [6BE2A7A1], AccurateRip returned [FF59DB9F] (AR v2)Track 3 cannot be verified as accurate (confidence 2) [AC4E24F3], AccurateRip returned [CEC426C6] (AR v2)Track 4 cannot be verified as accurate (confidence 1) [986E5B74], AccurateRip returned [B6193E7E] (AR v2)Track 5 cannot be verified as accurate (confidence 2) [F06FFBD8], AccurateRip returned [E993C769] (AR v2)Track 6 cannot be verified as accurate (confidence 2) [8DC510B5], AccurateRip returned [B0AA5DEB] (AR v2)Track 7 cannot be verified as accurate (confidence 2) [6C670D91], AccurateRip returned [4B740993] (AR v2)Track 8 cannot be verified as accurate (confidence 2) [F4C33FEC], AccurateRip returned [DB33E9FF] (AR v2)Track 9 cannot be verified as accurate (confidence 2) [3F483EBD], AccurateRip returned [8584DADC] (AR v2)Track 10 cannot be verified as accurate (confidence 2) [701AB0A4], AccurateRip returned [947FED5B] (AR v2)Track 11 cannot be verified as accurate (confidence 2) [B447CF01], AccurateRip returned [41505D56] (AR v2)Track 12 cannot be verified as accurate (confidence 2) [1A2380C5], AccurateRip returned [C8E262CA] (AR v2)

No tracks could be verified as accurateYou may have a different pressing from the one(s) in the database

End of status report

==== Log checksum 021ACC2C72F4668E46FA32697B982F6FC985E3F5BCC9B451A28C32142411406E ====
Exact Audio Copy V1.0 beta 2 from 29. April 2011

EAC extraction logfile from 30. March 2012, 14:19

Asia / Live Philadelphia - USA CD2

Used drive : _NEC DVD_RW ND-4571A Adapter: 0 ID: 1

Read mode : SecureUtilize accurate stream : YesDefeat audio cache : YesMake use of C2 pointers : No

Read offset correction : 48Overread into Lead-In and Lead-Out : NoFill up missing offset samples with silence : YesDelete leading and trailing silent blocks : NoNull samples used in CRC calculations : YesUsed interface : Native Win32 interface for Win NT & 2000

Used output format : User Defined EncoderSelected bitrate : 128 kBit/sQuality : HighAdd ID3 tag : NoCommand line compressor : C:\Program Files\Exact Audio Copy\FLAC\FLAC.EXEAdditional command line options : -V -8 -T "Date=%year%" -T "Genre=%genre%" %source%

TOC of the extracted CD

Track | Start | Length | Start sector | End sector --------------------------------------------------------- 1 | 0:00.00 | 5:35.62 | 0 | 25186 2 | 5:35.62 | 4:03.30 | 25187 | 43441 3 | 9:39.17 | 7:23.28 | 43442 | 76694 4 | 17:02.45 | 4:37.00 | 76695 | 97469 5 | 21:39.45 | 5:35.12 | 97470 | 122606 6 | 27:14.57 | 7:20.73 | 122607 | 155679 7 | 34:35.55 | 7:29.37 | 155680 | 189391

Range status and errors

Selected range

Filename D:\EAC\Asia - Live Philadelphia - USA CD2.wav

Peak level 98.8 % Extraction speed 4.5 X Range quality 99.9 % Test CRC C19440D8 Copy CRC C19440D8 Copy OK

No errors occurred

AccurateRip summary

Track 1 cannot be verified as accurate (confidence 2) [B575486F], AccurateRip returned [68E2B98D] (AR v2)Track 2 cannot be verified as accurate (confidence 2) [3AAFFF99], AccurateRip returned [666B9857] (AR v2)Track 3 cannot be verified as accurate (confidence 2) [B8608B02], AccurateRip returned [161B77D1] (AR v2)Track 4 cannot be verified as accurate (confidence 2) [F4F49D41], AccurateRip returned [17CFE3A2] (AR v2)Track 5 cannot be verified as accurate (confidence 2) [969A73AF], AccurateRip returned [9AD44086] (AR v2)Track 6 cannot be verified as accurate (confidence 2) [54B4E651], AccurateRip returned [27E74F31] (AR v2)Track 7 cannot be verified as accurate (confidence 2) [88220566], AccurateRip returned [31A60BB4] (AR v2)

No tracks could be verified as accurateYou may have a different pressing from the one(s) in the database

End of status report

==== Log checksum 983AC6DCAB88A7EFC1A9E8EA92E1214A6AE33773A6F724A53B8CD886B4C7C575 ====

AT HIGH VOLTAGE 2010
Страна-производитель диска: EU
Год издания диска: 2010.11.05
Период творчества: ORIGINAL ASIA
Издатель (лейбл): Concert Live
Номер по каталогу: CLCD281
Продолжительность (общая): 01:03:50
Источник (релизер): Личная коллекция
Наличие сканов в содержимом раздачи: да
Recorded Live at High Voltage Festival, Victoria Park, London, 24th July 2010.
Продолжительность: 00:32:34
Треклист:
01. Only Time Will Tell (6:15)
02. Wildest Dreams (5:25)
03. One Step Closer (4:26)
04. An Extraordinary Life (5:06)
05. Time Again (5:17)
06. Cutting It Fine (6:06)
Geoff Downes - Keyboards, Backing Vocals
Steve Howe - Guitars, Backing Vocals
Carl Palmer - Drums
John Wetton - Lead Vocals, Bass & Acoustic Guitars
Exact Audio Copy V1.0 beta 2 from 29. April 2011

EAC extraction logfile from 26. January 2012, 13:48

Asia / At High Voltage 2010 (cd1)

Used drive : _NEC DVD_RW ND-4571A Adapter: 0 ID: 1

Read mode : SecureUtilize accurate stream : YesDefeat audio cache : YesMake use of C2 pointers : No

Read offset correction : 48Overread into Lead-In and Lead-Out : NoFill up missing offset samples with silence : YesDelete leading and trailing silent blocks : NoNull samples used in CRC calculations : YesUsed interface : Native Win32 interface for Win NT & 2000

Used output format : User Defined EncoderSelected bitrate : 128 kBit/sQuality : HighAdd ID3 tag : NoCommand line compressor : C:\Program Files\Exact Audio Copy\FLAC\FLAC.EXEAdditional command line options : -V -8 -T "Date=%year%" -T "Genre=%genre%" %source%

TOC of the extracted CD

Track | Start | Length | Start sector | End sector --------------------------------------------------------- 1 | 0:00.00 | 6:15.17 | 0 | 28141 2 | 6:15.17 | 5:24.46 | 28142 | 52487 3 | 11:39.63 | 4:25.61 | 52488 | 72423 4 | 16:05.49 | 5:06.09 | 72424 | 95382 5 | 21:11.58 | 5:16.67 | 95383 | 119149 6 | 26:28.50 | 6:05.60 | 119150 | 146584

Range status and errors

Selected range

Filename D:\EAC\Asia - At High Voltage 2010 (cd1).wav

Peak level 99.9 % Extraction speed 6.5 X Range quality 99.9 % Test CRC C6D8771D Copy CRC C6D8771D Copy OK

No errors occurred

AccurateRip summary

Track 1 not present in databaseTrack 2 not present in databaseTrack 3 not present in databaseTrack 4 not present in databaseTrack 5 not present in databaseTrack 6 not present in database

None of the tracks are present in the AccurateRip database

End of status report

==== Log checksum A83322CE473E9314F3D5A0F8A2A24FAF0FBDB5048C561307B71747A125478D16 ====
Продолжительность: 0:31:16
Треклист:
01. Without You (6:09)
02. I Believe (5:03)
03. Here Comes the Feeling (6:55)
04. Sole Survivor (6:07)
05. Heat of the Moment (7:03)
Geoff Downes - Keyboards, Backing Vocals
Steve Howe - Guitars, Backing Vocals
Carl Palmer - Drums
John Wetton - Lead Vocals, Bass & Acoustic Guitars
Exact Audio Copy V1.0 beta 2 from 29. April 2011

EAC extraction logfile from 26. January 2012, 14:15

Asia / At High Voltage 2010 (cd2)

Used drive : _NEC DVD_RW ND-4571A Adapter: 0 ID: 1

Read mode : SecureUtilize accurate stream : YesDefeat audio cache : YesMake use of C2 pointers : No

Read offset correction : 48Overread into Lead-In and Lead-Out : NoFill up missing offset samples with silence : YesDelete leading and trailing silent blocks : NoNull samples used in CRC calculations : YesUsed interface : Native Win32 interface for Win NT & 2000

Used output format : User Defined EncoderSelected bitrate : 128 kBit/sQuality : HighAdd ID3 tag : NoCommand line compressor : C:\Program Files\Exact Audio Copy\FLAC\FLAC.EXEAdditional command line options : -V -8 -T "Date=%year%" -T "Genre=%genre%" %source%

TOC of the extracted CD

Track | Start | Length | Start sector | End sector --------------------------------------------------------- 1 | 0:00.00 | 6:08.51 | 0 | 27650 2 | 6:08.51 | 5:02.59 | 27651 | 50359 3 | 11:11.35 | 6:54.46 | 50360 | 81455 4 | 18:06.06 | 6:07.32 | 81456 | 109012 5 | 24:13.38 | 7:02.74 | 109013 | 140736

Range status and errors

Selected range

Filename D:\EAC\Asia - At High Voltage 2010 (cd2).wav

Peak level 99.9 % Extraction speed 3.0 X Range quality 99.9 % Test CRC 08555ADD Copy CRC 08555ADD Copy OK

No errors occurred

AccurateRip summary

Track 1 not present in databaseTrack 2 not present in databaseTrack 3 not present in databaseTrack 4 not present in databaseTrack 5 not present in database

None of the tracks are present in the AccurateRip database

End of status report

==== Log checksum 036385AD36AC0A67FD4786535D9892EB063C150AD56676EB92B0E5BAF1489C60 ====


Трекер:  [ 27-Окт-2012 13:49 ]

  

Скачать .torrent

Размер .torrent файла 93 KB


Размер: 11.9 GB
Хэш (hash) релиза: 602c5deb3c7bd0b6f1af595e948ac73bd903bdfd

Еще никто не оставлял запись к записи скачать торрент Asia - Коллекция, часть III: Live & Compilations - 1991-2011 . Будь первым!

!Обратная связь