Скачать через торрент музыку SANTANA бесплатно без регистрации torrent

Если у вас наблюдаются проблемы со скриншотами, переходом по ссылками, скачиванием торрентов - проблемы в блокировщике рекламы AdBlock. #хорошегоДня!


Статистика раздачи
Размер:  434 MB   |    Зарегистрирован:  4 года 11 месяцев   |    .torrent скачан:  30 раз   |   
Раздают:  1  
   
Загрузка...
 
Автор Сообщение

Galfimbul

avatar Galfimbul


SANTANA (THE NEAL SCHON AUDITIONS)1969 / Hot Tamales

Жанр: Rock,Latin Rock
Страна-производитель диска: ENGLAND
Год издания: 1999
Издатель (лейбл): Newsound 2000
Номер по каталогу: NST023
Аудиокодек: FLAC (*.flac)
Тип рипа: image+.cue
Битрейт аудио: lossless
Продолжительность: 1:14:33
Источник (релизер): Свой
Наличие сканов в содержимом раздачи: да
Треклист:
1.Jingo
2.Acapulco Sunrise
3.Coconut Grove
4.Hot Tamales
5.With a Little Help From My Friends
6.Everyday I Have The Blues
7.Jam in E
8.Travellin'' Home
9.Jammin'' Home
10.Latin Tropical
11.Let''s Get Ourselves Together
12.As The Years Go By
Exact Audio Copy V0.99 prebeta 5 from 4. May 2009

Отчёт EAC об извлечении, выполненном 23. октября 2012, 10:55

SANTANA / HOT TAMALES

Дисковод: TSSTcorpCDDVDW SH-S202J Adapter: 1 ID: 0

Режим чтения : ДостоверностьИспользование точного потока : ДаОтключение кэша аудио : ДаИспользование указателей C2 : Нет

Коррекция смещения при чтении : 6Способность читать области Lead-in и Lead-out : НетЗаполнение пропущенных сэмплов тишиной : ДаУдаление блоков с тишиной в начале и конце : НетПри вычислениях CRC использовались нулевые сэмплы : ДаИнтерфейс : Встроенный Win32-интерфейс для Win NT/2000

Выходной формат : Пользовательский кодировщикВыбранный битрейт : 768 kBit/sКачество : ВысокийДобавление ID3-тэга : НетУтилита сжатия : C:\Program Files\Exact Audio Copy\FLAC\FLAC.EXEДополнительные параметры : -6 -V -T "ARTIST=%a" -T "TITLE=%t" -T "ALBUM=%g" -T "DATE=%y" -T "TRACKNUMBER=%n" -T "GENRE=%m" -T "COMMENT=%e" %s -o %d

TOC извлечённого CD

Трек | Старт | Длительность | Начальный сектор | Конечный сектор --------------------------------------------------------------------- 1 | 0:00.33 | 9:59.47 | 33 | 45004 2 | 10:00.05 | 2:39.15 | 45005 | 56944 3 | 12:39.20 | 2:34.70 | 56945 | 68564 4 | 15:14.15 | 8:07.50 | 68565 | 105139 5 | 23:21.65 | 4:13.68 | 105140 | 124182 6 | 27:35.58 | 7:15.00 | 124183 | 156807 7 | 34:50.58 | 8:36.42 | 156808 | 195549 8 | 43:27.25 | 5:00.28 | 195550 | 218077 9 | 48:27.53 | 8:25.42 | 218078 | 255994 10 | 56:53.20 | 11:34.25 | 255995 | 308069 11 | 68:27.45 | 2:14.55 | 308070 | 318174 12 | 70:42.25 | 3:51.68 | 318175 | 335567

Характеристики диапазона извлечения и сообщения об ошибках

Выбранный диапазон

Имя файла C:\Documents and Settings\Admin\Мои документы\Моя музыка\Santana-Hot T amales-1969\SANTANA - HOT TAMALES.wav

Пиковый уровень 100.0 % Качество диапазона 99.9 % CRC теста 867F5075 CRC копии 867F5075 Копирование... OK

Ошибок не произошло

AccurateRip: сводка

Трек 1 точное извлечение (доверие 4) [DBDEFA3B]Трек 2 точное извлечение (доверие 4) [932651F4]Трек 3 точное извлечение (доверие 4) [55795B31]Трек 4 точное извлечение (доверие 4) [E8068BC2]Трек 5 точное извлечение (доверие 4) [6DCD599B]Трек 6 точное извлечение (доверие 4) [010E1218]Трек 7 точное извлечение (доверие 4) [6B5B696E]Трек 8 точное извлечение (доверие 4) [EA8C44E6]Трек 9 точное извлечение (доверие 4) [F6E4DB37]Трек 10 точное извлечение (доверие 4) [2E05720D]Трек 11 точное извлечение (доверие 4) [2CF8945C]Трек 12 точность не определена (достоверность 4) [37FB6CDB], AccurateRip вернул [B34768C9]

11 трек(и) скопированы точно 1 трек(и) не удалось проверить на точность

Некоторые треки не прошли проверку на точность

Конец отчёта
REM GENRE "Latin rock"REM DATE 2000REM DISCID 9E117A0CREM COMMENT "ExactAudioCopy v0.99pb5"PERFORMER "SANTANA"TITLE "HOT TAMALES"FILE "SANTANA - HOT TAMALES.flac" WAVE TRACK 01 AUDIO TITLE "Jingo" PERFORMER "SANTANA" INDEX 00 00:00:00 INDEX 01 00:00:33 TRACK 02 AUDIO TITLE "Acapulco Sunrise" PERFORMER "SANTANA" INDEX 00 09:56:00 INDEX 01 10:00:05 TRACK 03 AUDIO TITLE "Coconut Grove" PERFORMER "SANTANA" INDEX 00 12:36:73 INDEX 01 12:39:20 TRACK 04 AUDIO TITLE "Hot Tamales" PERFORMER "SANTANA" INDEX 00 15:11:32 INDEX 01 15:14:15 TRACK 05 AUDIO TITLE "With a Little Help From My Friends" PERFORMER "SANTANA" INDEX 01 23:21:65 TRACK 06 AUDIO TITLE "Everyday I Have The Blues" PERFORMER "SANTANA" INDEX 00 27:32:47 INDEX 01 27:35:58 TRACK 07 AUDIO TITLE "Jam in E " PERFORMER "SANTANA" INDEX 00 34:46:55 INDEX 01 34:50:58 TRACK 08 AUDIO TITLE "Travellin '' Home" PERFORMER "SANTANA" INDEX 00 43:24:16 INDEX 01 43:27:25 TRACK 09 AUDIO TITLE "Jammin '' Home" PERFORMER "SANTANA" INDEX 00 48:23:74 INDEX 01 48:27:53 TRACK 10 AUDIO TITLE "Latin Tropical" PERFORMER "SANTANA" INDEX 00 56:50:12 INDEX 01 56:53:20 TRACK 11 AUDIO TITLE "Let''s Get Ourselves Together" PERFORMER "SANTANA" INDEX 00 68:23:36 INDEX 01 68:27:45 TRACK 12 AUDIO TITLE "As Years Go By" PERFORMER "SANTANA" INDEX 00 70:39:02 INDEX 01 70:42:25
Доп. информация: знакомые в Германии закинули в машину пакет полный дисков .Дома посмотрел ,много сборников металлических и пару тройку альбомов.Вот потихоньку выставляю.
This album is split between sessions with the above 1969 line-up,and the auditions for guitarist Neal Schon,who played with Santana thereafter until 1973, when he and Gregg Rolie formed the band Journey.
Recorded between the release of their first album for CBS in 1969 named simply ''''Santana'''',and the seminal ''''Abraxas'''' in 1970, the ''''Hot Tamales'''' sessions are an important part of any Santana collection, and are simply a documentary of the interim between the two.MS


Трекер:  [ 27-Окт-2012 13:49 ]

  

Скачать .torrent

Размер .torrent файла 18 KB


Размер: 434 MB
Хэш (hash) релиза: 3b6a75f93c342989643d3660c197fd0c66b454c6

Торренты, похожие на SANTANA скачать торрент

Форум Название Автор Размер S L Добавлен
Rосk | Mеtаl | Аltеrnаtivе, Рunk, Indереndеnt (mр3) ·· (Blues Rock | Latin Rock | Jazz Rock | Funk | Soul | Psychedelic Rock | Classic Rock) Santana [Carlos Santana | Devadip Carlos Santana] - Discography [267 Releases] - 1968 - 2016, MP3, [CBR, VBR] 160 - 320kbps Galfimbul 3721334346534.66 GB 0 0 1496261325

23:08

31-Май-17

Rосk | Mеtаl | Аltеrnаtivе, Рunk, Indереndеnt (mр3) ·· (Rock) Santana - Santana IV: Live At The House Of Blues Las Vegas - 2016, MP3, 320 kbps Galfimbul 309620107295 MB 0 0 1477293878

10:24

24-Окт-16

Rосk | Mеtаl | Аltеrnаtivе, Рunk, Indереndеnt (mр3) ·· (Classic Rock / Latin Rock) Santana - Santana IV - 2016, MP3, 320 kbps Galfimbul 185301420177 MB 0 0 1460638212

15:50

14-Апр-16

Rосk | Mеtаl | Аltеrnаtivе, Рunk, Indереndеnt (mр3) ·· (Blues Rock) Santana - The Magic Of Santana - 2015, MP3, 320 kbps Galfimbul 180089378172 MB 0 0 1427305415

20:43

25-Мар-15

Rосk | Mеtаl | Аltеrnаtivе, Рunk, Indереndеnt (mр3) ·· (Rock | Blues) Santana - The Essential Santana (2 CD) - 2013, MP3, 320 kbps Galfimbul 346163575330 MB 0 0 1377873757

17:42

30-Авг-13

Rосk | Mеtаl | Аltеrnаtivе, Рunk, Indереndеnt (losslеss) ·· (Latin Rock) Santana - The Essential Santana (2CD) - 2002, FLAC (image+.cue), lossless Galfimbul 10756424041 GB 0 0 1369840201

18:10

29-Май-13

Rосk | Mеtаl | Аltеrnаtivе, Рunk, Indереndеnt (losslеss) ·· (Rock/Pop/Jazz) Santana - Collection (w. Turiya Alice Coltrane, Mahavishnu John McLaughlin, Santana Brothers) - 32 albums (35 CD) - 1969-2012, FLAC (image+.cue), lossless Galfimbul 1465396002713.65 GB 1 1 1364978053

11:34

3-Апр-13

Rосk | Mеtаl | Аltеrnаtivе, Рunk, Indереndеnt (losslеss) ·· (Latin Rock) Santana - Santana (1969) - 1998, FLAC (image+.cue), lossless _N_ 417232172398 MB 0 0 1337004240

17:04

14-Май-12

Rосk | Mеtаl | Аltеrnаtivе, Рunk, Indереndеnt (losslеss) ·· (Blues / Rock) Carlos Santana - Santana Story - 1995, FLAC (image+.cue), lossless uzi2009 452146275431 MB 0 0 1297876593

20:16

16-Фев-11

Rосk | Mеtаl | Аltеrnаtivе, Рunk, Indереndеnt (losslеss) ·· (Rock) Santana - The Best Of Santana - 1998, APE (image + .cue), lossless Galfimbul 523534061499 MB 0 0 1297876251

20:10

16-Фев-11

Rосk | Mеtаl | Аltеrnаtivе, Рunk, Indереndеnt (losslеss) ·· (Rock Latin) Santana - Best of the best Santana (Limited Gold Edition) - 1996, FLAC (image+.cue), lossless Galfimbul 489235079467 MB 0 0 1297876012

20:06

16-Фев-11

Rосk | Mеtаl | Аltеrnаtivе, Рunk, Indереndеnt (mр3) ·· (Rock) The Isley Brothers (& Santana) - Power Of Peace - 2017, MP3, 320 kbps Galfimbul 159361246152 MB 0 0 1501155356

14:35

27-Июл-17

Электронная музыка (mp3) ·· (Psychedelic Trance) Lunatica (Miguel Solans Santana) - 10 Singles And EP's Collection - 2016-2017, MP3, 320 kbps Galfimbul 407818564389 MB 0 0 1498901485

12:31

1-Июл-17

Электронная музыка (mp3) ·· (Progressive Psychedelic Trance) Lupin (Miguel Solans Santana) - 16 Singles And EP's Collection - 2012-2016, MP3, 320 kbps Galfimbul 689538961658 MB 0 0 1487577250

10:54

20-Фев-17

Электронная музыка (mp3) ·· (Techno) Alberto Santana - Alpha Station - 2016, MP3, 320 kbps Galfimbul 131650123126 MB 0 0 1474709393

12:29

24-Сен-16

Электронная музыка (mp3) ·· (Breaks) Omar Santana & Evan Gamble Lewis - New World Order - 2016, MP3, 320 kbps Galfimbul 243039287232 MB 0 0 1459352767

18:46

30-Мар-16

Rосk | Mеtаl | Аltеrnаtivе, Рunk, Indереndеnt (mр3) ·· (Rock, Latin, Blues Rock, Classic Rock) Santana - Supernatural Live - 2000, MP3, 320 kbps Galfimbul 329542369314 MB 0 0 1454165373

17:49

30-Янв-16

Электронная музыка (lossless) ·· (Breakbeat) [WEB] Omar Santana - Universal Sound - 2009, FLAC (tracks), lossless (TRCD004) Galfimbul 599061166571 MB 0 0 1429904985

22:49

24-Апр-15

Rосk | Mеtаl | Аltеrnаtivе, Рunk, Indереndеnt (mр3) ·· (Classic Rock) Santana - Masterpieces (2 CD) - 2014, MP3, 320 kbps Galfimbul 295615239282 MB 0 0 1420285391

14:43

3-Янв-15

Зарубежный Rap, Hip-Hop, R'n'B (mp3) ·· (Southern Rap/Hip-Hop) Fredo Santana - It's A Scary Site 2 - 2013, MP3, 128 kbps Galfimbul 7325580970 MB 1 1 1389367601

18:26

10-Янв-14

Еще никто не оставлял запись к записи скачать торрент SANTANA . Будь первым!

!Обратная связь