Скачать через торрент музыку Bassholes - Blue Roots - 1997, FLAC бесплатно без регистрации torrent

Если у вас наблюдаются проблемы со скриншотами, переходом по ссылками, скачиванием торрентов - проблемы в блокировщике рекламы AdBlock. #хорошегоДня!


Статистика раздачи
Размер:  209 MB   |    Зарегистрирован:  4 года 9 месяцев   |    .torrent скачан:  6 раз   |   
Раздают:  1  
   
Загрузка...
 
Автор Сообщение

Galfimbul

avatar Galfimbul


Bassholes / Blue Roots

Жанр: Garage Punk, Garage Rock, Punk Blues
Страна-производитель диска: US
Год издания: 1997
Издатель (лейбл): Revenant
Номер по каталогу: Rev 204
Страна: US
Аудиокодек: FLAC (*.flac)
Тип рипа: tracks+.cue
Битрейт аудио: lossless
Продолжительность: 00:40:34
Источник (релизер): What.cd, Temerit
Наличие сканов в содержимом раздачи: нет
Треклист:

01. Judge Harsh Blues
02. Nakema
03. I Can Tell By The Way You Smell
04. It''s So Easy
05. Light Bulb Boogie
06. Stack O'' Lee And Billy Lyons
07. Bald Headed Woman
08. Sleepyman Blues
09. Cigarette Blues
10. Missing Linkster
11. Candyman Blues
12. Titanic Blues
13. Love Cry Blues

Credits ▼

Drums – Rich Lillash
Guitar, Vocals – Don Howland
Liner Notes – Dick "Blues Boy" Rosenthal*


Notes ▼

First album by Bassholes, originally released in 1992 by In The Red Recordings.
X Lossless Decoder version 20120908 (141.1)

XLD extraction logfile from 2012-09-28 17:50:49 -0700

Bassholes / Blue Roots

Used drive : OPTIARC DVD RW AD-5970H (revision 3APE)

Ripper mode : XLD Secure RipperDisable audio cache : OK for the drive with a cache less than 1375KiBMake use of C2 pointers : NORead offset correction : 48Max retry count : 20Gap status : Analyzed, Appended (except HTOA)

TOC of the extracted CD Track | Start | Length | Start sector | End sector --------------------------------------------------------- 1 | 00:00:00 | 03:47:43 | 0 | 17067 2 | 03:47:43 | 04:13:52 | 17068 | 36094 3 | 08:01:20 | 02:08:13 | 36095 | 45707 4 | 10:09:33 | 02:40:06 | 45708 | 57713 5 | 12:49:39 | 02:25:73 | 57714 | 68661 6 | 15:15:37 | 03:02:14 | 68662 | 82325 7 | 18:17:51 | 03:34:43 | 82326 | 98418 8 | 21:52:19 | 01:56:06 | 98419 | 107124 9 | 23:48:25 | 02:36:58 | 107125 | 118882 10 | 26:25:08 | 02:07:51 | 118883 | 128458 11 | 28:32:59 | 01:51:12 | 128459 | 136795 12 | 30:23:71 | 03:00:73 | 136796 | 150368 13 | 33:24:69 | 07:09:28 | 150369 | 182571

AccurateRip Summary (DiscID: 0012c574-00b8c00f-a409820d) Track 01 : OK (v1, confidence 2/2) Track 02 : OK (v1, confidence 2/2) Track 03 : OK (v1, confidence 2/2) Track 04 : OK (v1, confidence 2/2) Track 05 : OK (v1, confidence 2/2) Track 06 : OK (v1, confidence 2/2) Track 07 : OK (v1, confidence 2/2) Track 08 : OK (v1, confidence 2/2) Track 09 : OK (v1, confidence 2/2) Track 10 : OK (v1, confidence 2/2) Track 11 : OK (v1, confidence 2/2) Track 12 : OK (v1, confidence 2/2) Track 13 : OK (v1, confidence 2/2) ->All tracks accurately ripped.

All Tracks Album gain : -3.02 dB Peak : 0.943909 Statistics Read error : 0 Jitter error (maybe fixed) : 0 Retry sector count : 0 Damaged sector count : 0

Track 01 Filename : /Users/andywilm/Desktop/Bassholes - Blue Roots (1997) [FLAC]/01 Judge Harsh Blues.flac Pre-gap length : 00:02:00

Track gain : -2.62 dB Peak : 0.930969 CRC32 hash (test run) : 24A5B43E CRC32 hash : 24A5B43E CRC32 hash (skip zero) : 4E9A5F93 AccurateRip v1 signature : 3193F9D7 AccurateRip v2 signature : 8057DD58 ->Accurately ripped (v1, confidence 2/2) Statistics Read error : 0 Jitter error (maybe fixed) : 0 Retry sector count : 0 Damaged sector count : 0

Track 02 Filename : /Users/andywilm/Desktop/Bassholes - Blue Roots (1997) [FLAC]/02 Nakema.flac Pre-gap length : 00:02:00

Track gain : -3.82 dB Peak : 0.874634 CRC32 hash (test run) : E111D50B CRC32 hash : E111D50B CRC32 hash (skip zero) : EA4CE460 AccurateRip v1 signature : 469981CA AccurateRip v2 signature : AE1A2449 ->Accurately ripped (v1, confidence 2/2) Statistics Read error : 0 Jitter error (maybe fixed) : 0 Retry sector count : 0 Damaged sector count : 0

Track 03 Filename : /Users/andywilm/Desktop/Bassholes - Blue Roots (1997) [FLAC]/03 I Can Tell By The Way You Smell.flac Pre-gap length : 00:02:00

Track gain : -4.45 dB Peak : 0.943909 CRC32 hash (test run) : 2004B302 CRC32 hash : 2004B302 CRC32 hash (skip zero) : 7257A399 AccurateRip v1 signature : 32158961 AccurateRip v2 signature : B8C2BF2E ->Accurately ripped (v1, confidence 2/2) Statistics Read error : 0 Jitter error (maybe fixed) : 0 Retry sector count : 0 Damaged sector count : 0

Track 04 Filename : /Users/andywilm/Desktop/Bassholes - Blue Roots (1997) [FLAC]/04 It''s So Easy.flac Pre-gap length : 00:02:00

Track gain : -2.54 dB Peak : 0.845886 CRC32 hash (test run) : 0DA377B1 CRC32 hash : 0DA377B1 CRC32 hash (skip zero) : 18B11963 AccurateRip v1 signature : 2F8D8234 AccurateRip v2 signature : 12F712B3 ->Accurately ripped (v1, confidence 2/2) Statistics Read error : 0 Jitter error (maybe fixed) : 0 Retry sector count : 0 Damaged sector count : 0

Track 05 Filename : /Users/andywilm/Desktop/Bassholes - Blue Roots (1997) [FLAC]/05 Light Bulb Boogie.flac Pre-gap length : 00:02:00

Track gain : -3.54 dB Peak : 0.673859 CRC32 hash (test run) : 3181E11B CRC32 hash : 3181E11B CRC32 hash (skip zero) : CB148DF2 AccurateRip v1 signature : 32A2C499 AccurateRip v2 signature : 7E0586A4 ->Accurately ripped (v1, confidence 2/2) Statistics Read error : 0 Jitter error (maybe fixed) : 0 Retry sector count : 0 Damaged sector count : 0

Track 06 Filename : /Users/andywilm/Desktop/Bassholes - Blue Roots (1997) [FLAC]/06 Stack O'' Lee And Billy Lyons.flac Pre-gap length : 00:02:00

Track gain : -0.13 dB Peak : 0.799713 CRC32 hash (test run) : EBFB8A29 CRC32 hash : EBFB8A29 CRC32 hash (skip zero) : 80340983 AccurateRip v1 signature : 73B9056E AccurateRip v2 signature : 0C34EE08 ->Accurately ripped (v1, confidence 2/2) Statistics Read error : 0 Jitter error (maybe fixed) : 0 Retry sector count : 0 Damaged sector count : 0

Track 07 Filename : /Users/andywilm/Desktop/Bassholes - Blue Roots (1997) [FLAC]/07 Bald Headed Woman Blues.flac Pre-gap length : 00:02:00

Track gain : 0.05 dB Peak : 0.700531 CRC32 hash (test run) : 7484A31A CRC32 hash : 7484A31A CRC32 hash (skip zero) : 73916AFF AccurateRip v1 signature : E714E698 AccurateRip v2 signature : C32EFEAF ->Accurately ripped (v1, confidence 2/2) Statistics Read error : 0 Jitter error (maybe fixed) : 0 Retry sector count : 0 Damaged sector count : 0

Track 08 Filename : /Users/andywilm/Desktop/Bassholes - Blue Roots (1997) [FLAC]/08 Sleepman Blues.flac Pre-gap length : 00:02:00

Track gain : -1.85 dB Peak : 0.753326 CRC32 hash (test run) : 26E8B6E0 CRC32 hash : 26E8B6E0 CRC32 hash (skip zero) : 149E2F08 AccurateRip v1 signature : 802CDB47 AccurateRip v2 signature : EE1C4353 ->Accurately ripped (v1, confidence 2/2) Statistics Read error : 0 Jitter error (maybe fixed) : 0 Retry sector count : 0 Damaged sector count : 0

Track 09 Filename : /Users/andywilm/Desktop/Bassholes - Blue Roots (1997) [FLAC]/09 Cigarette Blues.flac Pre-gap length : 00:02:00

Track gain : -3.80 dB Peak : 0.742371 CRC32 hash (test run) : B9E453D4 CRC32 hash : B9E453D4 CRC32 hash (skip zero) : 9B051268 AccurateRip v1 signature : A1A7FB0C AccurateRip v2 signature : A4180F38 ->Accurately ripped (v1, confidence 2/2) Statistics Read error : 0 Jitter error (maybe fixed) : 0 Retry sector count : 0 Damaged sector count : 0

Track 10 Filename : /Users/andywilm/Desktop/Bassholes - Blue Roots (1997) [FLAC]/10 Missing Linkster.flac Pre-gap length : 00:02:00

Track gain : -2.23 dB Peak : 0.850983 CRC32 hash (test run) : 4BBA1F10 CRC32 hash : 4BBA1F10 CRC32 hash (skip zero) : FAB72B2C AccurateRip v1 signature : 969652F4 AccurateRip v2 signature : E246410A ->Accurately ripped (v1, confidence 2/2) Statistics Read error : 0 Jitter error (maybe fixed) : 0 Retry sector count : 0 Damaged sector count : 0

Track 11 Filename : /Users/andywilm/Desktop/Bassholes - Blue Roots (1997) [FLAC]/11 Candyman Blues.flac Pre-gap length : 00:02:00

Track gain : -1.94 dB Peak : 0.744904 CRC32 hash (test run) : 41118009 CRC32 hash : 41118009 CRC32 hash (skip zero) : 02F466B9 AccurateRip v1 signature : 2350867F AccurateRip v2 signature : 4CFEFACF ->Accurately ripped (v1, confidence 2/2) Statistics Read error : 0 Jitter error (maybe fixed) : 0 Retry sector count : 0 Damaged sector count : 0

Track 12 Filename : /Users/andywilm/Desktop/Bassholes - Blue Roots (1997) [FLAC]/12 Titanic Blues.flac Pre-gap length : 00:02:00

Track gain : -0.31 dB Peak : 0.580322 CRC32 hash (test run) : 91001AC1 CRC32 hash : 91001AC1 CRC32 hash (skip zero) : E5AEDCD6 AccurateRip v1 signature : 25DDBF13 AccurateRip v2 signature : 53ABC7AB ->Accurately ripped (v1, confidence 2/2) Statistics Read error : 0 Jitter error (maybe fixed) : 0 Retry sector count : 0 Damaged sector count : 0

Track 13 Filename : /Users/andywilm/Desktop/Bassholes - Blue Roots (1997) [FLAC]/13 Love Cry Blues.flac Pre-gap length : 00:02:00

Track gain : -0.93 dB Peak : 0.819122 CRC32 hash (test run) : 9D73D247 CRC32 hash : 9D73D247 CRC32 hash (skip zero) : 58C0F748 AccurateRip v1 signature : 69720B16 AccurateRip v2 signature : 4419D0EF ->Accurately ripped (v1, confidence 2/2) Statistics Read error : 0 Jitter error (maybe fixed) : 0 Retry sector count : 0 Damaged sector count : 0

No errors occurred

End of status report
TITLE "Blue Roots"PERFORMER "Bassholes"REM GENRE "Punk"REM DATE "1997"REM DISCNUMBER 1REM TOTALDISCS 1REM DISCID A409820DREM REPLAYGAIN_ALBUM_GAIN -3.02 dBREM REPLAYGAIN_ALBUM_PEAK 0.943909FILE "01 Judge Harsh Blues.flac" WAVE TRACK 01 AUDIO TITLE "Judge Harsh Blues" SONGWRITER "Don Howland-Rich Lillash" REM REPLAYGAIN_TRACK_GAIN -2.62 dB REM REPLAYGAIN_TRACK_PEAK 0.930969 INDEX 01 00:00:00 TRACK 02 AUDIO TITLE "Nakema" SONGWRITER "Don Howland-Rich Lillash" REM REPLAYGAIN_TRACK_GAIN -3.82 dB REM REPLAYGAIN_TRACK_PEAK 0.874634 INDEX 00 03:45:43FILE "02 Nakema.flac" WAVE INDEX 01 00:00:00 TRACK 03 AUDIO TITLE "I Can Tell By The Way You Smell" SONGWRITER "Don Howland-Rich Lillash" REM REPLAYGAIN_TRACK_GAIN -4.45 dB REM REPLAYGAIN_TRACK_PEAK 0.943909 INDEX 00 04:11:52FILE "03 I Can Tell By The Way You Smell.flac" WAVE INDEX 01 00:00:00 TRACK 04 AUDIO TITLE "It''s So Easy" SONGWRITER "Don Howland-Rich Lillash" REM REPLAYGAIN_TRACK_GAIN -2.54 dB REM REPLAYGAIN_TRACK_PEAK 0.845886 INDEX 00 02:06:13FILE "04 It''s So Easy.flac" WAVE INDEX 01 00:00:00 TRACK 05 AUDIO TITLE "Light Bulb Boogie" SONGWRITER "Don Howland-Rich Lillash" REM REPLAYGAIN_TRACK_GAIN -3.54 dB REM REPLAYGAIN_TRACK_PEAK 0.673859 INDEX 00 02:38:06FILE "05 Light Bulb Boogie.flac" WAVE INDEX 01 00:00:00 TRACK 06 AUDIO TITLE "Stack O'' Lee And Billy Lyons" SONGWRITER "Don Howland-Rich Lillash" REM REPLAYGAIN_TRACK_GAIN -0.13 dB REM REPLAYGAIN_TRACK_PEAK 0.799713 INDEX 00 02:23:73FILE "06 Stack O'' Lee And Billy Lyons.flac" WAVE INDEX 01 00:00:00 TRACK 07 AUDIO TITLE "Bald Headed Woman Blues" SONGWRITER "Don Howland-Rich Lillash" REM REPLAYGAIN_TRACK_GAIN 0.05 dB REM REPLAYGAIN_TRACK_PEAK 0.700531 INDEX 00 03:00:14FILE "07 Bald Headed Woman Blues.flac" WAVE INDEX 01 00:00:00 TRACK 08 AUDIO TITLE "Sleepman Blues" SONGWRITER "Don Howland-Rich Lillash" REM REPLAYGAIN_TRACK_GAIN -1.85 dB REM REPLAYGAIN_TRACK_PEAK 0.753326 INDEX 00 03:32:43FILE "08 Sleepman Blues.flac" WAVE INDEX 01 00:00:00 TRACK 09 AUDIO TITLE "Cigarette Blues" SONGWRITER "Don Howland-Rich Lillash" REM REPLAYGAIN_TRACK_GAIN -3.80 dB REM REPLAYGAIN_TRACK_PEAK 0.742371 INDEX 00 01:54:06FILE "09 Cigarette Blues.flac" WAVE INDEX 01 00:00:00 TRACK 10 AUDIO TITLE "Missing Linkster" SONGWRITER "Don Howland-Rich Lillash" REM REPLAYGAIN_TRACK_GAIN -2.23 dB REM REPLAYGAIN_TRACK_PEAK 0.850983 INDEX 00 02:34:58FILE "10 Missing Linkster.flac" WAVE INDEX 01 00:00:00 TRACK 11 AUDIO TITLE "Candyman Blues" SONGWRITER "Don Howland-Rich Lillash" REM REPLAYGAIN_TRACK_GAIN -1.94 dB REM REPLAYGAIN_TRACK_PEAK 0.744904 INDEX 00 02:05:51FILE "11 Candyman Blues.flac" WAVE INDEX 01 00:00:00 TRACK 12 AUDIO TITLE "Titanic Blues" SONGWRITER "Don Howland-Rich Lillash" REM REPLAYGAIN_TRACK_GAIN -0.31 dB REM REPLAYGAIN_TRACK_PEAK 0.580322 INDEX 00 01:49:12FILE "12 Titanic Blues.flac" WAVE INDEX 01 00:00:00 TRACK 13 AUDIO TITLE "Love Cry Blues" SONGWRITER "Don Howland-Rich Lillash" REM REPLAYGAIN_TRACK_GAIN -0.93 dB REM REPLAYGAIN_TRACK_PEAK 0.819122 INDEX 00 02:58:73FILE "13 Love Cry Blues.flac" WAVE INDEX 01 00:00:00
AUDIOCHECKER v2.0 beta (build 457) - by Dester - <a href="mailto:opdester@freemail.hu" class="postLink">opdester@freemail.hu</a>~~~~~~~~~~~~~~~~~~~~~~~~~~~~~~~~~~-=== DO NOT EDIT THIS FILE! ===-

Path: ...\Bassholes - Blue Roots (1997) [FLAC]

01 -=- 01 Judge Harsh Blues.flac -=- CDDA (99%)02 -=- 02 Nakema.flac -=- CDDA (100%)03 -=- 03 I Can Tell By The Way You Smell.flac -=- CDDA (99%)04 -=- 04 It''s So Easy.flac -=- CDDA (100%)05 -=- 05 Light Bulb Boogie.flac -=- CDDA (100%)06 -=- 06 Stack O'' Lee And Billy Lyons.flac -=- CDDA (100%)07 -=- 07 Bald Headed Woman Blues.flac -=- CDDA (100%)08 -=- 08 Sleepman Blues.flac -=- CDDA (100%)09 -=- 09 Cigarette Blues.flac -=- CDDA (100%)10 -=- 10 Missing Linkster.flac -=- CDDA (100%)11 -=- 11 Candyman Blues.flac -=- CDDA (100%)12 -=- 12 Titanic Blues.flac -=- CDDA (100%)13 -=- 13 Love Cry Blues.flac -=- CDDA (100%)

Summary 99,85% CDDA

11628804


Трекер:  [ 27-Окт-2012 13:49 ]

  

Скачать .torrent

Размер .torrent файла 18 KB


Размер: 209 MB
Хэш (hash) релиза: d12621642b709692af4044ef546727197fec362c

Еще никто не оставлял запись к записи скачать торрент Bassholes - Blue Roots - 1997, FLAC . Будь первым!

!Обратная связь