Скачать через торрент музыку Elvis Presley -=1977=- Moody Blue, APE бесплатно без регистрации torrent

Если у вас наблюдаются проблемы со скриншотами, переходом по ссылками, скачиванием торрентов - проблемы в блокировщике рекламы AdBlock. #хорошегоДня!


Статистика раздачи
Размер:  201 MB   |    Зарегистрирован:  4 года 9 месяцев   |    .torrent скачан:  5 раз   |   
Раздают:  1  
   
Загрузка...
 
Автор Сообщение

Galfimbul

avatar Galfimbul


Elvis Presley -=1977=- Moody Blue

Жанр: Rock & Roll
Год выпуска диска: 1977
Производитель диска: США
Лейбл: RCA
Каталожный номер: 2428-2-R
Аудио кодек: APE
Тип рипа: image+.cue+.jpg
Битрейт аудио: lossless
Продолжительность: 00:31:36
Полиграфия: да

Треклист:
01 - Unchained Melody [2:37]
02 - If You Love Me (Let Me Know) [3:03]
03 - Little Darlin' [1:56]
04 - He'll Have To Go [4:36]
05 - Let Me Be There [3:39]
06 - Way Down [2:42]
07 - Pledging My Love [2:51]
08 - Moody Blue [2:53]
09 - She Thinks I Still Care [3:51]
10 - It's Easy for You [3:30]
Exact Audio Copy V0.99 prebeta 5 from 4. May 2009

Отчёт EAC об извлечении, выполненном 5. апреля 2011, 20:49

Elvis Presley / Moody Blue

Дисковод: ASUS DRW-24B1ST Adapter: 0 ID: 0

Режим чтения : ДостоверностьИспользование точного потока : ДаОтключение кэша аудио : ДаИспользование указателей C2 : Нет

Коррекция смещения при чтении : 6Способность читать области Lead-in и Lead-out : НетЗаполнение пропущенных сэмплов тишиной : ДаУдаление блоков с тишиной в начале и конце : НетПри вычислениях CRC использовались нулевые сэмплы : ДаИнтерфейс : Встроенный Win32-интерфейс для Win NT/2000

Выходной формат : Внутренние WAV-операцииФормат сэмплов : 44.100 Гц; 16 бит; стерео

TOC извлечённого CD

Трек | Старт | Длительность | Начальный сектор | Конечный сектор --------------------------------------------------------------------- 1 | 0:00.00 | 2:36.50 | 0 | 11749 2 | 2:36.50 | 3:02.40 | 11750 | 25439 3 | 5:39.15 | 1:55.73 | 25440 | 34137 4 | 7:35.13 | 4:35.60 | 34138 | 54822 5 | 12:10.73 | 3:38.55 | 54823 | 71227 6 | 15:49.53 | 2:41.40 | 71228 | 83342 7 | 18:31.18 | 2:50.55 | 83343 | 96147 8 | 21:21.73 | 2:53.20 | 96148 | 109142 9 | 24:15.18 | 3:51.12 | 109143 | 126479 10 | 28:06.30 | 3:29.45 | 126480 | 142199

Характеристики диапазона извлечения и сообщения об ошибках

Выбранный диапазон

Имя файла J:\Музыка на разбор\! EXTRACT !\Elvis Presley=1977=Moody Blue.wav

Пиковый уровень 89.4 % Качество диапазона 100.0 % CRC теста 29768BB4 CRC копии 29768BB4 Копирование... OK

Ошибок не произошло

AccurateRip: сводка

Трек 1 точность не определена (достоверность 7) [F67868D7], AccurateRip вернул [06D06EC0]Трек 2 точность не определена (достоверность 7) [E57B97BD], AccurateRip вернул [3534D09C]Трек 3 точность не определена (достоверность 7) [C46AEA40], AccurateRip вернул [0228522A]Трек 4 точность не определена (достоверность 7) [1109DE83], AccurateRip вернул [69BA0FA8]Трек 5 точность не определена (достоверность 7) [FE2A2697], AccurateRip вернул [35305B72]Трек 6 точность не определена (достоверность 7) [23A05821], AccurateRip вернул [08D76F63]Трек 7 точность не определена (достоверность 7) [B76221C2], AccurateRip вернул [0140486B]Трек 8 точность не определена (достоверность 7) [547E878C], AccurateRip вернул [CA559B8B]Трек 9 точность не определена (достоверность 6) [CC884F79], AccurateRip вернул [C0320C94]Трек 10 точность не определена (достоверность 6) [0A72FDCE], AccurateRip вернул [715CC758]

Ни один трек не прошёл проверки на точностьВ вашей базе может быть иной вариант штамповки диска

Конец отчёта
«Moody Blue» (англ. Хмурняшка) — последний альбом американского певца Элвиса Пресли. Песни для него были частично записаны в поместье Пресли «Грейсленд» и во время концертов. Альбом занял 3-е место в американском хит-параде, не в последнюю очередь из-за смерти певца полтора месяца спустя. Альбом достиг дважды платинового статуса.

После удачного опыта записи Элвиса Пресли у него в доме в феврале 1976 года RCA Records вновь привезли свою передвижную студию в «Грейсленд» в конце октября того же года. На тот момент у лейбла оставалось две песни с прошлой сессии — «Moody Blue» и «She Thinks I Still Care» — которые пошли на сингл, изданный месяцем позже. Однако данная попытка записи в «Грейсленде» прервалась после всего четырёх песен («He’ll Have To Go», «Way Down», «Pledging My Love» и «It’s Easy For You»).

В феврале 1977 года Пресли удалось уговорить на запись нового альбома в студиях RCA Records. Певец вылетел в Нэшвилл, но на сессии так никогда и не появился, сославшись на горло; собравшиеся музыканты вынуждены были разойтись. В итоге — так как студийных записей для полноценного альбома не хватало — продюсер Пресли Фелтон Джарвис решил дополнить его записями с последних концертов, причём таких, какие ранее ещё не выходили у Пресли на пластинках. По итогу весенних гастролей 1977 года были отобраны эстрадные хиты «Unchained Melody», «If You Love Me (Let Me Know)» и «Little Darlin'».

Таким образом был собран состав пластинки. В неё также, по каким-то причинам, Джарвис включил уже вышедшею несколько лет назад песню «Let Me Be There», которая полностью выпадала из хронологических рамок альбома. Название пластинке дал включённый в неё сингл прошлого года «Moody Blue».

В 1997 году вышло юбилейное издание «Moody Blue», дополненное целиком альбомом «From Elvis Presley Boulevard, Memphis, Tennessee», при этом была убрана песня «Let Me Be There», таким образом создав целостный комплект песен 1976 года.

В 2000 году на специализированном лейбле Follow That Dream, принадлежащем RCA Records, вышел сборник ранее неизданных дублей всех песен с сессий в «Грейсленде» — см. «The Jungle Room Sessions». На нём можно услышать готовую инструментальную версию «Fire Down Below», на которую планировалось наложить голос Пресли, но певец так и не записал её.


Трекер:  [ 27-Окт-2012 13:49 ]

  

Скачать .torrent

Размер .torrent файла 17 KB


Размер: 201 MB
Хэш (hash) релиза: e427e6a34dec7501709ed0060e2af54ee2b0c37d

Еще никто не оставлял запись к записи скачать торрент Elvis Presley -=1977=- Moody Blue, APE . Будь первым!

!Обратная связь