Скачать через торрент музыку Elvis Presley -=1975=- Pure Gold, APE бесплатно без регистрации torrent

Если у вас наблюдаются проблемы со скриншотами, переходом по ссылками, скачиванием торрентов - проблемы в блокировщике рекламы AdBlock. #хорошегоДня!


Статистика раздачи
Размер:  150 MB   |    Зарегистрирован:  4 года 9 месяцев   |    .torrent скачан:  8 раз   |   
Раздают:  1  
   
Загрузка...
 
Автор Сообщение

Galfimbul

avatar Galfimbul


Elvis Presley -=1975=- Pure Gold

Жанр: Rock & Roll
Страна-производитель диска: США
Год издания: 1975
Издатель (лейбл): RCA
Номер по каталогу: 07863 53732-2
Страна: США
Аудиокодек: APE (*.ape)
Тип рипа: image+.cue
Битрейт аудио: lossless
Продолжительность: 00:26:39
Источник (релизер): личная коллекция
Наличие сканов в содержимом раздачи: да

Треклист:
01 - Kentucky Rain [3:25]
02 - Fever [3:34]
03 - It''s Impossible [2:53]
04 - Jailhouse Rock [2:30]
05 - Don''t Be Cruel [2:05]
06 - I Got a Woman [2:26]
07 - All Shook Up [1:59]
08 - Loving You [2:15]
09 - In the Ghetto [2:50]
10 - Love Me Tender [2:42]


Exact Audio Copy V0.99 prebeta 5 from 4. May 2009

Отчёт EAC об извлечении, выполненном 22. октября 2012, 22:58

Elvis Presley / Pure Gold

Дисковод: ASUS DRW-24B1ST Adapter: 0 ID: 0

Режим чтения : ДостоверностьИспользование точного потока : ДаОтключение кэша аудио : ДаИспользование указателей C2 : Нет

Коррекция смещения при чтении : 6Способность читать области Lead-in и Lead-out : НетЗаполнение пропущенных сэмплов тишиной : ДаУдаление блоков с тишиной в начале и конце : НетПри вычислениях CRC использовались нулевые сэмплы : ДаИнтерфейс : Встроенный Win32-интерфейс для Win NT/2000

Выходной формат : Внутренние WAV-операцииФормат сэмплов : 44.100 Гц; 16 бит; стерео

TOC извлечённого CD

Трек | Старт | Длительность | Начальный сектор | Конечный сектор --------------------------------------------------------------------- 1 | 0:00.37 | 3:25.25 | 37 | 15436 2 | 3:25.62 | 3:34.33 | 15437 | 31519 3 | 7:00.20 | 2:52.45 | 31520 | 44464 4 | 9:52.65 | 2:29.45 | 44465 | 55684 5 | 12:22.35 | 2:05.35 | 55685 | 65094 6 | 14:27.70 | 2:26.30 | 65095 | 76074 7 | 16:54.25 | 1:59.32 | 76075 | 85031 8 | 18:53.57 | 2:14.40 | 85032 | 95121 9 | 21:08.22 | 2:49.40 | 95122 | 107836 10 | 23:57.62 | 2:41.50 | 107837 | 119961

Характеристики диапазона извлечения и сообщения об ошибках

Выбранный диапазон

Имя файла J:\=НА РАЗБОР=\!=! EXTRACT\Elvis Presley (=1975=) Pure Gold.wav

Пиковый уровень 89.0 % Качество диапазона 100.0 % CRC теста 16212DB9 CRC копии 16212DB9 Копирование... OK

Ошибок не произошло

AccurateRip: сводка

Трек 1 точное извлечение (доверие 6) [B1B5E0FF]Трек 2 точное извлечение (доверие 6) [A7F8EDAA]Трек 3 точное извлечение (доверие 6) [9EBEC284]Трек 4 точное извлечение (доверие 6) [1BB815A2]Трек 5 точное извлечение (доверие 6) [B74ECAC2]Трек 6 точное извлечение (доверие 6) [061A6604]Трек 7 точное извлечение (доверие 6) [A80A8447]Трек 8 точное извлечение (доверие 6) [89DA0CBF]Трек 9 точное извлечение (доверие 6) [97BE2122]Трек 10 точное извлечение (доверие 6) [B7BE5CAC]

Все треки извлечены точно

Конец отчёта


Трекер:  [ 27-Окт-2012 13:48 ]

  

Скачать .torrent

Размер .torrent файла 13 KB


Размер: 150 MB
Хэш (hash) релиза: 2735d4c2c2cd8584b1e8b6bb6fc002abc970e734

Еще никто не оставлял запись к записи скачать торрент Elvis Presley -=1975=- Pure Gold, APE . Будь первым!

!Обратная связь