Скачать через торрент музыку Twin Age - Lialim High - 1997, FLAC бесплатно без регистрации torrent

Если у вас наблюдаются проблемы со скриншотами, переходом по ссылками, скачиванием торрентов - проблемы в блокировщике рекламы AdBlock. #хорошегоДня!


Статистика раздачи
Размер:  352 MB   |    Зарегистрирован:  4 года 9 месяцев   |    .torrent скачан:  10 раз   |   
Раздают:  1  
   
Загрузка...
 
Автор Сообщение

Galfimbul

avatar Galfimbul


Twin Age / Lialim High

Жанр: Progressive Rock
Год издания: 1997
Издатель (лейбл): Altair Music
Номер по каталогу: TA 9702
Страна: Швеция
Аудиокодек: FLAC (*.flac)
Тип рипа: image+.cue
Битрейт аудио: lossless
Продолжительность: 50:27
Источник (релизер): мой CD
Наличие сканов в содержимом раздачи: да
Треклист:
1. Twelve Feet Tall (11:00)
2. Blinded (5:58)
3. The Pelican Lie (14:23)
4. Famous Last Words (7:40)
5. A Sign Of My Decline (8:40)
6. The Final Decision (2:46)
Exact Audio Copy V1.0 beta 2 from 29. April 2011

Отчёт EAC об извлечении, выполненном 20. октября 2012, 20:37

Twin Age / Lialim High

Дисковод: ATAPI iHAP122 W Adapter: 3 ID: 1

Режим чтения : ДостоверностьИспользование точного потока : ДаОтключение кэша аудио : ДаИспользование указателей C2 : Нет

Коррекция смещения при чтении : 6Способность читать области Lead-in и Lead-out : НетЗаполнение пропущенных сэмплов тишиной : ДаУдаление блоков с тишиной в начале и конце : НетПри вычислениях CRC использовались нулевые сэмплы : НетИнтерфейс : Встроенный Win32-интерфейс для Win NT/2000

Выходной формат : Внутренние WAV-операцииФормат сэмплов : 44.100 Гц; 16 бит; стерео

TOC извлечённого CD

Трек | Старт | Длительность | Начальный сектор | Конечный сектор --------------------------------------------------------------------- 1 | 0:00.00 | 11:03.50 | 0 | 49774 2 | 11:03.50 | 6:01.65 | 49775 | 76914 3 | 17:05.40 | 14:22.57 | 76915 | 141621 4 | 31:28.22 | 7:42.55 | 141622 | 176326 5 | 39:11.02 | 8:41.68 | 176327 | 215469 6 | 47:52.70 | 2:45.70 | 215470 | 227914

Характеристики диапазона извлечения и сообщения об ошибках

Выбранный диапазон

Имя файла D:\obraz\Twin Age - Lialim High\Twin Age - Lialim High.wav

Пиковый уровень 98.9 % Скорость извлечения 8.3 X Качество диапазона 100.0 % CRC теста D4A2E319 CRC копии D4A2E319 Копирование... OK

Ошибок не произошло

AccurateRip: сводка

Трек 1 : извлечено точно (доверие 3) [D18DCC2F] (AR v1)Трек 2 : извлечено точно (доверие 3) [4DA827D3] (AR v1)Трек 3 : извлечено точно (доверие 3) [41475BE6] (AR v1)Трек 4 : извлечено точно (доверие 3) [EAECFC26] (AR v1)Трек 5 : извлечено точно (доверие 3) [3755A5E3] (AR v1)Трек 6 : извлечено точно (доверие 3) [350E083B] (AR v1)

Все треки извлечены точно

Конец отчёта

==== Контрольная сумма отчёта A3502170FBC2C791BA5FEB11603AAD3BE9F9DAAED7D9EAD6392F34F0C30FA8FA ====
REM GENRE "Progressive Rock"REM DATE 1997REM DISCID 510BDE06REM COMMENT "ExactAudioCopy v1.0b2"CATALOG 0000000000000PERFORMER "Twin Age"TITLE "Lialim High"FILE "Twin Age - Lialim High.wav" WAVE TRACK 01 AUDIO TITLE "Twelve Feet Tall" PERFORMER "Twin Age" INDEX 01 00:00:00 TRACK 02 AUDIO TITLE "Blinded" PERFORMER "Twin Age" INDEX 00 11:00:13 INDEX 01 11:03:50 TRACK 03 AUDIO TITLE "The Pelican Lie" PERFORMER "Twin Age" INDEX 00 17:01:50 INDEX 01 17:05:40 TRACK 04 AUDIO TITLE "Famous Last Words" PERFORMER "Twin Age" INDEX 00 31:28:20 INDEX 01 31:28:22 TRACK 05 AUDIO TITLE "A Sign Of My Decline" PERFORMER "Twin Age" INDEX 00 39:07:65 INDEX 01 39:11:02 TRACK 06 AUDIO TITLE "The Final Decision" PERFORMER "Twin Age" INDEX 00 47:50:48 INDEX 01 47:52:70
Доп. информация: Второй альбом этих чудных шведских проггеров, к большому сожалению, теперь распавшейся группы...
У меня, как и первый, проходит как один из тех редких дисков, когда нет разделения на "слабые" или "сильные" треки, - просто нравится буквально всё от начала до конца! - бархатная музыка, не оруще-визжащий, а мягкий, выразительный вокал, отличные мелодии, в тему красивые гитарные и клавишные соло, меллотрон....оторваться не могу.
Рекомендовал бы в первую очередь любителям Камел.....
Из Прог-архивов:
Twin Age biography
TWIN AGE is an excellent Swedish symphonic band. Instruments used are guitar, bass, drums & keyboards. Music is very much rooted in the GENESIS style with some neo-progressive flourishes. Vocals are from the Gabriel school. Lush symphonic keyboards and Hackettesque guitar licks fill out the sound. Good melodies and fairly complex arrangements. Perhaps they sound a bit like distant cousins of MANTICORE.

TWIN AGE''s style is very similar to I.Q. (vocals) and "Selling England By The Band" era pastoral sections and early MARILLION symphonic washes. They play neo prog with strong melodies and tasteful musicianship. This band should appeal to all music lovers of ARENA, I.Q., JADIS, MARIILION and PENDRAGON fans.
- Johan Hansson / vocals
- Carl Johan Kilborn / keyboards
- Jörgen Hansson / drums
- John Löwenadler / guitars
- Petter Petterson / bass


Трекер:  [ 27-Окт-2012 13:48 ]

  

Скачать .torrent

Размер .torrent файла 15 KB


Размер: 352 MB
Хэш (hash) релиза: b69b2785b60e036e2e8dec15dce12395c1d01e91

Еще никто не оставлял запись к записи скачать торрент Twin Age - Lialim High - 1997, FLAC . Будь первым!

!Обратная связь