Скачать через торрент музыку Elvis Presley -=2000=- Thats The Way It Is =Special Edition= бесплатно без регистрации torrent

Если у вас наблюдаются проблемы со скриншотами, переходом по ссылками, скачиванием торрентов - проблемы в блокировщике рекламы AdBlock. #хорошегоДня!


Статистика раздачи
Размер:  1.64 GB   |    Зарегистрирован:  4 года 9 месяцев   |    .torrent скачан:  9 раз   |   
Раздают:  1  
   
Загрузка...
 
Автор Сообщение

Galfimbul

avatar Galfimbul


Elvis Presley -=2000=- That''s The Way It Is (3CD BOXSET)Special Edition
Жанр: Rock & Roll, Gospel, Ballad
Страна-производитель диска: США
Год издания диска: 2000
Издатель (лейбл): RCA
Номер по каталогу: 07863 67938-2
Страна: США
Аудио кодек: APE (*.ape)
Тип рипа: image+.cue
Битрейт аудио: lossless
Продолжительность: 3:30:20
Источник (релизер): Личная коллекция
Наличие сканов в содержимом раздачи: да (полный комплект, 600dpi)

01 - I Just Can''t Help Believin'' [4:41]
02 - Twenty Days And Twenty Nights [3:17]
03 - How The Web Was Woven [3:25]
04 - Patch It Up [4:01]
05 - Mary In The Morning [4:11]
06 - You Don''t Have To Say You Love Me [2:30]
07 - You''ve Lost That Loving Feeling [4:24]
08 - I''ve Lost You [3:41]
09 - Just Pretend [4:05]
10 - Stranger In The Crowd [3:48]
11 - The Next Step Is Love [3:33]
12 - Bridge Over Troubled Water [4:36]
13 - Love Letters [2:52]
14 - When I''m Over You [2:27]
15 - Something [3:41]
16 - I''ll Never Know [2:24]
17 - Sylvia [3:18]
18 - Cindy, Cindy [2:31]
19 - Rags To Riches [1:53]
Exact Audio Copy V0.99 prebeta 5 from 4. May 2009

Отчёт EAC об извлечении, выполненном 20. февраля 2011, 12:50

Elvis Presley / That''s The Way It Is (Special Edition) (CD1 - Special Edition)

Дисковод: ASUS DRW-24B1ST Adapter: 0 ID: 0

Режим чтения : ДостоверностьИспользование точного потока : ДаОтключение кэша аудио : ДаИспользование указателей C2 : Нет

Коррекция смещения при чтении : 6Способность читать области Lead-in и Lead-out : НетЗаполнение пропущенных сэмплов тишиной : ДаУдаление блоков с тишиной в начале и конце : НетПри вычислениях CRC использовались нулевые сэмплы : ДаИнтерфейс : Встроенный Win32-интерфейс для Win NT/2000

Выходной формат : Внутренние WAV-операцииФормат сэмплов : 44.100 Гц; 16 бит; стерео

TOC извлечённого CD

Трек | Старт | Длительность | Начальный сектор | Конечный сектор --------------------------------------------------------------------- 1 | 0:00.00 | 4:40.47 | 0 | 21046 2 | 4:40.47 | 3:17.30 | 21047 | 35851 3 | 7:58.02 | 3:25.20 | 35852 | 51246 4 | 11:23.22 | 4:00.58 | 51247 | 69304 5 | 15:24.05 | 4:10.62 | 69305 | 88116 6 | 19:34.67 | 2:30.35 | 88117 | 99401 7 | 22:05.27 | 4:24.28 | 99402 | 119229 8 | 26:29.55 | 3:40.67 | 119230 | 135796 9 | 30:10.47 | 4:05.10 | 135797 | 154181 10 | 34:15.57 | 3:48.03 | 154182 | 171284 11 | 38:03.60 | 3:33.35 | 171285 | 187294 12 | 41:37.20 | 4:36.27 | 187295 | 208021 13 | 46:13.47 | 2:52.18 | 208022 | 220939 14 | 49:05.65 | 2:26.55 | 220940 | 231944 15 | 51:32.45 | 3:41.07 | 231945 | 248526 16 | 55:13.52 | 2:24.35 | 248527 | 259361 17 | 57:38.12 | 3:18.08 | 259362 | 274219 18 | 60:56.20 | 2:31.22 | 274220 | 285566 19 | 63:27.42 | 1:53.18 | 285567 | 294059

Характеристики диапазона извлечения и сообщения об ошибках

Выбранный диапазон

Имя файла N:\Музыка на разбор\!! Extract !!\Elvis Presley\2000 - That''s The Way It Is (Special Edition)\CD1\Elvis Presley=2000=That''s The Way It Is (Special Edition) (CD1 - Special Edition).wav

Пиковый уровень 100.0 % Качество диапазона 100.0 % CRC теста A8BAF9E1 CRC копии A8BAF9E1 Копирование... OK

Ошибок не произошло

AccurateRip: сводка

Трек 1 точное извлечение (доверие 13) [2CB6532E]Трек 2 точное извлечение (доверие 13) [DECF8A34]Трек 3 точное извлечение (доверие 13) [A2EF807C]Трек 4 точное извлечение (доверие 13) [6279EF7C]Трек 5 точное извлечение (доверие 13) [C6C66449]Трек 6 точное извлечение (доверие 13) [7B32F72F]Трек 7 точное извлечение (доверие 13) [5FE696B8]Трек 8 точное извлечение (доверие 13) [57345552]Трек 9 точное извлечение (доверие 13) [E27635C2]Трек 10 точное извлечение (доверие 13) [552E2614]Трек 11 точное извлечение (доверие 13) [9D3138EE]Трек 12 точное извлечение (доверие 13) [D42FDFED]Трек 13 точное извлечение (доверие 13) [328E6270]Трек 14 точное извлечение (доверие 13) [7FD7D670]Трек 15 точное извлечение (доверие 14) [E023181A]Трек 16 точное извлечение (доверие 13) [343FD45E]Трек 17 точное извлечение (доверие 13) [13F11A15]Трек 18 точное извлечение (доверие 12) [094FF0D1]Трек 19 точное извлечение (доверие 13) [96FCB30C]

Все треки извлечены точно

Конец отчёта
01 - That''s All Right (Previously unreleased) [2:32]
02 - Mystery Train-Tiger Man (Previously unreleased) [3:43]
03 - Hound Dog (Previously unreleased) [2:47]
04 - Love Me Tender (Previously unreleased) [6:54]
05 - Just Pretend (Previously unreleased) [4:12]
06 - Walk A Mile In My Shoes (Previously unreleased) [2:02]
07 - There Goes My Everything (Previously unreleased) [4:11]
08 - Words (Previously unreleased) [2:36]
09 - Sweet Caroline (Previously unreleased) [2:56]
10 - You''ve Lost That Loving Feeling (Previously unreleased) [6:29]
11 - Polk Salad Annie (Previously unreleased) [5:48]
12 - Heartbreak Hotel (Previously unreleased) [1:46]
13 - One Night (Previously unreleased) [1:46]
14 - Blue Suede Shoes (Previously unreleased) [1:31]
15 - All Shook Up (Previously unreleased) [2:01]
16 - Little Sister-Get Back [3:33]
17 - I Was The One [1:11]
18 - Love Me (Previously unreleased) [2:04]
19 - Are You Lonesome Tonight? [1:58]
20 - Bridge Over Troubled Water (Previously unreleased) [4:29]
21 - Suspicious Minds (Previously unreleased) [6:06]
22 - Can''t Help Falling In Love (Previously unreleased) [2:08]
Exact Audio Copy V0.99 prebeta 5 from 4. May 2009

Отчёт EAC об извлечении, выполненном 20. февраля 2011, 13:27

Elvis Presley / That''s The Way It Is (Special Edition) (CD2 - The Concert)

Дисковод: ASUS DRW-24B1ST Adapter: 0 ID: 0

Режим чтения : ДостоверностьИспользование точного потока : ДаОтключение кэша аудио : ДаИспользование указателей C2 : Нет

Коррекция смещения при чтении : 6Способность читать области Lead-in и Lead-out : НетЗаполнение пропущенных сэмплов тишиной : ДаУдаление блоков с тишиной в начале и конце : НетПри вычислениях CRC использовались нулевые сэмплы : ДаИнтерфейс : Встроенный Win32-интерфейс для Win NT/2000

Выходной формат : Внутренние WAV-операцииФормат сэмплов : 44.100 Гц; 16 бит; стерео

TOC извлечённого CD

Трек | Старт | Длительность | Начальный сектор | Конечный сектор --------------------------------------------------------------------- 1 | 0:00.00 | 2:32.17 | 0 | 11416 2 | 2:32.17 | 3:42.48 | 11417 | 28114 3 | 6:14.65 | 2:46.45 | 28115 | 40609 4 | 9:01.35 | 6:54.30 | 40610 | 71689 5 | 15:55.65 | 4:12.17 | 71690 | 90606 6 | 20:08.07 | 2:01.48 | 90607 | 99729 7 | 22:09.55 | 4:10.57 | 99730 | 118536 8 | 26:20.37 | 2:35.73 | 118537 | 130234 9 | 28:56.35 | 2:55.67 | 130235 | 143426 10 | 31:52.27 | 6:29.25 | 143427 | 172626 11 | 38:21.52 | 5:48.03 | 172627 | 198729 12 | 44:09.55 | 1:45.40 | 198730 | 206644 13 | 45:55.20 | 1:45.47 | 206645 | 214566 14 | 47:40.67 | 1:31.28 | 214567 | 221419 15 | 49:12.20 | 2:00.60 | 221420 | 230479 16 | 51:13.05 | 3:32.57 | 230480 | 246436 17 | 54:45.62 | 1:11.00 | 246437 | 251761 18 | 55:56.62 | 2:03.48 | 251762 | 261034 19 | 58:00.35 | 1:58.07 | 261035 | 269891 20 | 59:58.42 | 4:28.50 | 269892 | 290041 21 | 64:27.17 | 6:05.60 | 290042 | 317476 22 | 70:33.02 | 2:08.35 | 317477 | 327111

Характеристики диапазона извлечения и сообщения об ошибках

Выбранный диапазон

Имя файла N:\Музыка на разбор\!! Extract !!\Elvis Presley\2000 - That''s The Way It Is (Special Edition)\CD2\Elvis Presley=2000=That''s The Way It Is (Special Edition) (CD2 - The Concert).wav

Пиковый уровень 100.0 % Качество диапазона 100.0 % CRC теста A82C0A08 CRC копии A82C0A08 Копирование... OK

Ошибок не произошло

AccurateRip: сводка

Трек 1 точное извлечение (доверие 15) [E67334D0]Трек 2 точное извлечение (доверие 15) [059652EF]Трек 3 точное извлечение (доверие 15) [1D3D04F0]Трек 4 точное извлечение (доверие 15) [4D80FEC6]Трек 5 точное извлечение (доверие 15) [0FC875DA]Трек 6 точное извлечение (доверие 15) [4D918F34]Трек 7 точное извлечение (доверие 15) [A345E7B0]Трек 8 точное извлечение (доверие 15) [3A561B01]Трек 9 точное извлечение (доверие 15) [4AACF84A]Трек 10 точное извлечение (доверие 15) [449DE4C5]Трек 11 точное извлечение (доверие 14) [6885F47C]Трек 12 точное извлечение (доверие 15) [A54D984C]Трек 13 точное извлечение (доверие 15) [FA133197]Трек 14 точное извлечение (доверие 15) [1CFA1BC1]Трек 15 точное извлечение (доверие 15) [4D1A168C]Трек 16 точное извлечение (доверие 15) [38760FD9]Трек 17 точное извлечение (доверие 15) [124A0017]Трек 18 точное извлечение (доверие 15) [59D91E86]Трек 19 точное извлечение (доверие 15) [AD75894F]Трек 20 точное извлечение (доверие 14) [81938A5C]Трек 21 точное извлечение (доверие 14) [1F6B8067]Трек 22 точное извлечение (доверие 14) [A04EC94C]

Все треки извлечены точно

Конец отчёта
01 - I Got A Woman (Previously unreleased) [3:16]
02 - I Can''t Sop Loving You (Previously unreleased) [2:51]
03 - Twenty Days And Twenty Nights (Previously unreleased) [4:02]
04 - The Next Step Is Love (Previously unreleased) [3:31]
05 - You Don''t Have To Say You Love Me (Previously unreleased) [2:34]
06 - Stranger In The Crowd (Previously unreleased) [3:59]
07 - Make The World Go Away (Previously unreleased) [3:50]
08 - Don''t Cry Daddy (Previously unreleased) [2:32]
09 - In The Ghetto (Previously unreleased) [2:44]
10 - Peter Gunn Theme (Instrumental) [1:01]
11 - That''s All Right (Previously unreleased) [2:34]
12 - Cottonfields (Previously unreleased) [1:24]
13 - Yesterday (Previously unreleased) [2:45]
14 - I Can''t Stop Loving You (Previously unreleased) [2:28]
15 - Such A Night (Previously unreleased) [1:38]
16 - It''s Now Or Never (Previously unreleased) [2:16]
17 - (Now And Then Therews) A Fool Such As I (Previously unreleased) [2:45]
18 - Little Sister-Get Back (Previously unreleased) [6:07]
19 - I Washed My Hands In Muddy Water (Previously unreleased) [4:21]
20 - Johnny B. Goode (Previously unreleased) [3:04]
21 - Mary In The Morning (Previously unreleased) [4:06]
22 - The Wonder Of You (Previously unreleased) [3:16]
23 - Santa Claus is Back In Town (Previously unreleased) [2:02]
24 - Farther Along (Previously unreleased) [1:20]
25 - Oh Happy Day (Previously unreleased) [1:50]
Exact Audio Copy V0.99 prebeta 5 from 4. May 2009

Отчёт EAC об извлечении, выполненном 20. февраля 2011, 14:01

Elvis Presley / That''s The Way It Is (Special Edition) (CD3 - The Rehearsal)

Дисковод: ASUS DRW-24B1ST Adapter: 0 ID: 0

Режим чтения : ДостоверностьИспользование точного потока : ДаОтключение кэша аудио : ДаИспользование указателей C2 : Нет

Коррекция смещения при чтении : 6Способность читать области Lead-in и Lead-out : НетЗаполнение пропущенных сэмплов тишиной : ДаУдаление блоков с тишиной в начале и конце : НетПри вычислениях CRC использовались нулевые сэмплы : ДаИнтерфейс : Встроенный Win32-интерфейс для Win NT/2000

Выходной формат : Внутренние WAV-операцииФормат сэмплов : 44.100 Гц; 16 бит; стерео

TOC извлечённого CD

Трек | Старт | Длительность | Начальный сектор | Конечный сектор --------------------------------------------------------------------- 1 | 0:00.00 | 3:15.67 | 0 | 14691 2 | 3:15.67 | 2:50.43 | 14692 | 27484 3 | 6:06.35 | 4:02.35 | 27485 | 45669 4 | 10:08.70 | 3:31.12 | 45670 | 61506 5 | 13:40.07 | 2:33.53 | 61507 | 73034 6 | 16:13.60 | 3:59.22 | 73035 | 90981 7 | 20:13.07 | 3:50.13 | 90982 | 108244 8 | 24:03.20 | 2:32.27 | 108245 | 119671 9 | 26:35.47 | 2:43.50 | 119672 | 131946 10 | 29:19.22 | 1:01.28 | 131947 | 136549 11 | 30:20.50 | 2:33.72 | 136550 | 148096 12 | 32:54.47 | 1:23.60 | 148097 | 154381 13 | 34:18.32 | 2:45.03 | 154382 | 166759 14 | 37:03.35 | 2:27.65 | 166760 | 177849 15 | 39:31.25 | 1:38.17 | 177850 | 185216 16 | 41:09.42 | 2:15.73 | 185217 | 195414 17 | 43:25.40 | 2:45.10 | 195415 | 207799 18 | 46:10.50 | 6:07.10 | 207800 | 235334 19 | 52:17.60 | 4:21.07 | 235335 | 254916 20 | 56:38.67 | 3:03.73 | 254917 | 268714 21 | 59:42.65 | 4:06.10 | 268715 | 287174 22 | 63:49.00 | 3:16.35 | 287175 | 301909 23 | 67:05.35 | 2:02.35 | 301910 | 311094 24 | 69:07.70 | 1:19.42 | 311095 | 317061 25 | 70:27.37 | 1:50.20 | 317062 | 325331

Характеристики диапазона извлечения и сообщения об ошибках

Выбранный диапазон

Имя файла N:\Музыка на разбор\!! Extract !!\Elvis Presley\2000 - That''s The Way It Is (Special Edition)\CD3\Elvis Presley=2000=That''s The Way It Is (Special Edition) (CD3 - The Rehearsal).wav

Пиковый уровень 100.0 % Качество диапазона 99.9 % CRC теста 8827F278 CRC копии 8827F278 Копирование... OK

Ошибок не произошло

AccurateRip: сводка

Трек 1 точное извлечение (доверие 14) [503669C1]Трек 2 точное извлечение (доверие 14) [509CDEA9]Трек 3 точное извлечение (доверие 14) [4F607431]Трек 4 точное извлечение (доверие 13) [73B20C57]Трек 5 точное извлечение (доверие 14) [3D1A062A]Трек 6 точное извлечение (доверие 14) [C3EFEE5C]Трек 7 точное извлечение (доверие 14) [D457D4D0]Трек 8 точное извлечение (доверие 14) [7531C913]Трек 9 точное извлечение (доверие 14) [539420CC]Трек 10 точное извлечение (доверие 14) [90BF8435]Трек 11 точное извлечение (доверие 14) [8EBB11E1]Трек 12 точное извлечение (доверие 14) [72745EAE]Трек 13 точное извлечение (доверие 14) [77B9D71A]Трек 14 точное извлечение (доверие 14) [B311B62E]Трек 15 точное извлечение (доверие 14) [72DF80D9]Трек 16 точное извлечение (доверие 14) [458D44EC]Трек 17 точное извлечение (доверие 14) [1531DEC2]Трек 18 точное извлечение (доверие 14) [582F8039]Трек 19 точное извлечение (доверие 14) [D3C081AA]Трек 20 точное извлечение (доверие 14) [FF168200]Трек 21 точное извлечение (доверие 14) [C4B68433]Трек 22 точное извлечение (доверие 14) [63D82CE1]Трек 23 точное извлечение (доверие 14) [96300788]Трек 24 точное извлечение (доверие 14) [0CA58FD2]Трек 25 точное извлечение (доверие 14) [7DA3525D]

Все треки извлечены точно

Конец отчёта
«That’s The Way It Is» (англ. Дело обстоит так) — альбом американского певца Элвиса Пресли, вышедший в качестве звуковой дорожки к одноимённому документальному фильму 1970 года. Альбом не является собственно саундтреком, так как ни одна из версий песен фильма не вошла в альбом. Альбом занял 21-е место в американском хит-параде.

Альбом явился следствием работы над первым документальным кинофильмом о Пресли летом 1970 года. В фильме показано, как певец записывается в студии, проводит репетиции перед концертным сезоном и, наконец, как выступает на сцене перед публикой. Съёмки проходили в аудиостудиях MGM в Голливуде и в отеле «Интернациональ» в Лас-Вегасе во время третьего контрактного сезона Пресли. Всеобъемлющий характер фильма отразился в концепции альбома, в котором перемежаются как студийные, так и концертные версии песен.

В отличие от двух предыдущих студийных альбомов («From Elvis In Memphis» и «Back In Memphis»), в «That’s The Way It Is» отсутствует соуловая окраска, и аранжировки композиций близки по духу к эстрадным пластинкам Энгельберта Хампердинка и Тома Джонса, на звучание которых Пресли в то время равнялся. Объёма, записанного в студии материала, хватило ещё на два альбома («Elvis Country» и «Love Letters From Elvis ») и несколько неальбомных сиглов.

RCA Records записало по меньшей мере пять концертов в третьем контрактном сезоне, если не все. В альбом, в отличие от фильма, не включены композиции, которые ранее уже вышли в том или ином виде (исключение сделано для «I’ve Lost You», студийная версия которой к тому времени вышла на сингле). Открывающая альбом «I Just Can’t Help Believin''» была в то время шлягером для Би-Джея Томаса, «You’ve Lost That Lovin'' Feelin''» была хитом 1965 года для The Righteous Brothers, а закрывающая «Bridge Over Troubled Water» только что вышла в исполнении Simon & Garfunkel (в конце песни были наложены аплодисменты, на самом деле это студийная версия).

В 2000 году вышло расширенное издание альбома, дополненное песнями с тех же студийных сессий и концертов; кроме того также был включён полностью концерт 12 августа 1970 года и различные дубли и репетиционные фрагменты. Именно он и представлено Вашему вниманию.


Трекер:  [ 27-Окт-2012 13:48 ]

  

Скачать .torrent

Размер .torrent файла 23 KB


Размер: 1.64 GB
Хэш (hash) релиза: 5dd1ed5b8f5eb9de4b473ca1dee379ce445b1bb5

Еще никто не оставлял запись к записи скачать торрент Elvis Presley -=2000=- Thats The Way It Is =Special Edition= . Будь первым!

!Обратная связь