Скачать через торрент музыку The Outpatience - Anxious Disease - 1996, APE бесплатно без регистрации torrent

Если у вас наблюдаются проблемы со скриншотами, переходом по ссылками, скачиванием торрентов - проблемы в блокировщике рекламы AdBlock. #хорошегоДня!


Статистика раздачи
Размер:  357 MB   |    Зарегистрирован:  4 года 9 месяцев   |    .torrent скачан:  4 раза   |   
Раздают:  1  
   
Загрузка...
 
Автор Сообщение

Galfimbul

avatar Galfimbul


The Outpatience / Anxious Disease

Жанр: hard rock
Страна-производитель диска: Japan
Год издания: 1996
Издатель (лейбл): Teichiku
Номер по каталогу: TECW-25278
Страна: USA
Аудиокодек: APE (*.ape)
Тип рипа: image+.cue
Битрейт аудио: lossless
Источник (релизер): свой рипъ
Наличие сканов в содержимом раздачи: нет
Треклист:

01. Inbred
02. Wound Up in a Vega
03. Dragon in the Flames
04. Cold Duck
05. Heart Again
06. Anxious Disease
07. Walk On By
08. Smokin'' Dope and Sippin'' Tea
09. L-O-V-E
10. Black Eye
11. All the World Is Asleep
12. Purchase My Freedom
13. I.F.H.
Exact Audio Copy V0.99 prebeta 4 from 23. January 2008

EAC extraction logfile from 22. October 2012, 19:16

The Outpatience / Anxious Disease

Used drive : PIONEER DVD-RW DVR-212 Adapter: 5 ID: 0

Read mode : SecureUtilize accurate stream : YesDefeat audio cache : YesMake use of C2 pointers : No

Read offset correction : 48Overread into Lead-In and Lead-Out : NoFill up missing offset samples with silence : YesDelete leading and trailing silent blocks : NoNull samples used in CRC calculations : YesUsed interface : Native Win32 interface for Win NT & 2000

Used output format : Internal WAV RoutinesSample format : 44.100 Hz; 16 Bit; Stereo

TOC of the extracted CD

Track | Start | Length | Start sector | End sector --------------------------------------------------------- 1 | 0:00.00 | 3:04.00 | 0 | 13799 2 | 3:04.00 | 4:21.05 | 13800 | 33379 3 | 7:25.05 | 4:29.25 | 33380 | 53579 4 | 11:54.30 | 5:02.37 | 53580 | 76266 5 | 16:56.67 | 3:50.40 | 76267 | 93556 6 | 20:47.32 | 5:33.55 | 93557 | 118586 7 | 26:21.12 | 4:38.20 | 118587 | 139456 8 | 30:59.32 | 3:11.35 | 139457 | 153816 9 | 34:10.67 | 3:22.65 | 153817 | 169031 10 | 37:33.57 | 3:42.15 | 169032 | 185696 11 | 41:15.72 | 3:21.40 | 185697 | 200811 12 | 44:37.37 | 2:03.50 | 200812 | 210086 13 | 46:41.12 | 3:12.38 | 210087 | 224524

Range status and errors

Selected range

Filename D:\temp\The Outpatience - Anxious Disease.wav

Peak level 100.0 % Range quality 100.0 % Copy CRC 7BE18BEF Copy OK

No errors occurred

AccurateRip summary

Track 1 not present in databaseTrack 2 not present in databaseTrack 3 not present in databaseTrack 4 not present in databaseTrack 5 not present in databaseTrack 6 not present in databaseTrack 7 not present in databaseTrack 8 not present in databaseTrack 9 not present in databaseTrack 10 not present in databaseTrack 11 not present in databaseTrack 12 not present in databaseTrack 13 not present in database

None of the tracks are present in the AccurateRip database

End of status report


Трекер:  [ 27-Окт-2012 13:48 ]

  

Скачать .torrent

Размер .torrent файла 29 KB


Размер: 357 MB
Хэш (hash) релиза: be6855a1cb42a98511361cff944fb6505e77bc51

Еще никто не оставлял запись к записи скачать торрент The Outpatience - Anxious Disease - 1996, APE . Будь первым!

!Обратная связь