Скачать через торрент музыку RAK - Lepidoptera II-Book of Flight - 2012 бесплатно без регистрации torrent

Если у вас наблюдаются проблемы со скриншотами, переходом по ссылками, скачиванием торрентов - проблемы в блокировщике рекламы AdBlock. #хорошегоДня!


Статистика раздачи
Размер:  440 MB   |    Зарегистрирован:  5 лет   |    .torrent скачан:  24 раза   |   
Раздают:  1  
   
Загрузка...
 
Автор Сообщение

Galfimbul

avatar Galfimbul


RAK - Lepidoptera II-Book of Flight

Жанр: Prog Rock, Symphonic Rock
Страна-производитель диска: Netherlands
Год издания диска: 2012
Издатель (лейбл): Circle Records
Номер по каталогу: CR003
Страна: Switzerland
Аудио кодек: FLAC (*.flac)
Тип рипа: image+.cue
Битрейт аудио: lossless
Продолжительность: 01:04:22
Источник (релизер): vicor 61
Наличие сканов в содержимом раздачи: да

Треклист:

01. Volume I - The Ascent 17:44
a. Charter One
b. Charter Two
c. Charter Three
02. Volume II - The Breakthrough 11:07
a. Charter Four
b. Charter Five
03. Volume III - The Book of Flight 12:35
a. Charter Six
b. Charter Seven
c. Charter Eight
04. Volume IV - The Deception 10:31
a. Charter Nine
05. Volume V - The Descent 04:56
a. Charter Ten
06. Volume VI - The Great Machine 07:27
a. Charter Eleven
b. Charter Twelve
X Lossless Decoder version 20100711 (120.5)

XLD extraction logfile from 2012-10-09 14:48:52 +0000

RAK / Lepidoptera II - The Book Of Flight

Used drive : HL-DT-ST DVDRW GX30N (revision RP09)

Use cdparanoia mode : YES (CDParanoia III 10.2 engine)Disable audio cache : OK for the drive with cache less than 2750KBMake use of C2 pointers : NORead offset correction : 6Max retry count : 100Gap status : Analyzed, Appended

TOC of the extracted CD Track | Start | Length | Start sector | End sector --------------------------------------------------------- 1 | 00:00:00 | 17:44:06 | 0 | 79805 2 | 17:44:06 | 11:07:33 | 79806 | 129863 3 | 28:51:39 | 12:35:48 | 129864 | 186536 4 | 41:27:12 | 10:31:22 | 186537 | 233883 5 | 51:58:34 | 04:56:66 | 233884 | 256149 6 | 56:55:25 | 07:27:12 | 256150 | 289686

All Tracks

Filename : /Users/Urij/Desktop/RAK-2012/Lepidoptera II - The Book Of Flight.flac CRC32 hash : 8E8E4FCF CRC32 hash (skip zero) : C7A8AD0B Statistics Read error : 0 Skipped (treated as error) : 0 Edge jitter error (maybe fixed) : 0 Atom jitter error (maybe fixed) : 0 Drift error (maybe fixed) : 0 Dropped bytes error (maybe fixed) : 0 Duplicated bytes error (maybe fixed) : 0

Track 01

Pre-gap length : 00:02:00

CRC32 hash : F8311F57 CRC32 hash (skip zero) : 000F8170 AccurateRip signature : C6B06464 ->Rip may not be accurate. Statistics Read error : 0 Skipped (treated as error) : 0 Edge jitter error (maybe fixed) : 0 Atom jitter error (maybe fixed) : 0 Drift error (maybe fixed) : 0 Dropped bytes error (maybe fixed) : 0 Duplicated bytes error (maybe fixed) : 0

Track 02

CRC32 hash : 5414D6C9 CRC32 hash (skip zero) : 469A26B7 AccurateRip signature : B1FA764D ->Rip may not be accurate. Statistics Read error : 0 Skipped (treated as error) : 0 Edge jitter error (maybe fixed) : 0 Atom jitter error (maybe fixed) : 0 Drift error (maybe fixed) : 0 Dropped bytes error (maybe fixed) : 0 Duplicated bytes error (maybe fixed) : 0

Track 03

CRC32 hash : 56160324 CRC32 hash (skip zero) : F5867B3C AccurateRip signature : 406C67B5 ->Rip may not be accurate. Statistics Read error : 0 Skipped (treated as error) : 0 Edge jitter error (maybe fixed) : 0 Atom jitter error (maybe fixed) : 0 Drift error (maybe fixed) : 0 Dropped bytes error (maybe fixed) : 0 Duplicated bytes error (maybe fixed) : 0

Track 04

CRC32 hash : C99DCA02 CRC32 hash (skip zero) : 97E9C345 AccurateRip signature : 80A6F2E9 ->Rip may not be accurate. Statistics Read error : 0 Skipped (treated as error) : 0 Edge jitter error (maybe fixed) : 0 Atom jitter error (maybe fixed) : 0 Drift error (maybe fixed) : 0 Dropped bytes error (maybe fixed) : 0 Duplicated bytes error (maybe fixed) : 0

Track 05

CRC32 hash : 6B3C307A CRC32 hash (skip zero) : 6CD0C1F0 AccurateRip signature : 61FA46B8 ->Rip may not be accurate. Statistics Read error : 0 Skipped (treated as error) : 0 Edge jitter error (maybe fixed) : 0 Atom jitter error (maybe fixed) : 0 Drift error (maybe fixed) : 0 Dropped bytes error (maybe fixed) : 0 Duplicated bytes error (maybe fixed) : 0

Track 06 CRC32 hash : B090658D CRC32 hash (skip zero) : 84DB0E90 AccurateRip signature : 0207EB06 ->Rip may not be accurate. Statistics Read error : 0 Skipped (treated as error) : 0 Edge jitter error (maybe fixed) : 0 Atom jitter error (maybe fixed) : 0 Drift error (maybe fixed) : 0 Dropped bytes error (maybe fixed) : 0 Duplicated bytes error (maybe fixed) : 0

No errors occurred

End of status report
TITLE "Lepidoptera II - The Book Of Flight"PERFORMER "RAK"CATALOG 0642738954691REM GENRE "Progressive Rock"REM DATE 2012REM DISCNUMBER 1REM TOTALDISCS 1REM DISCID 490F1606FILE "Lepidoptera II - The Book Of Flight.flac" WAVE TRACK 01 AUDIO TITLE "Volume I - The Ascent" SONGWRITER "Mike Liechti/Stefan Gabele" ISRC CH6540828630 INDEX 01 00:00:00 TRACK 02 AUDIO TITLE "Volume II - The Breakthrough" SONGWRITER "Dave Thwaites/Marc Grassi" ISRC CH6540828631 INDEX 01 17:44:06 TRACK 03 AUDIO TITLE "Volume III - The Book Of Flight" SONGWRITER "Mike Liechti/Stefan Gabele" ISRC CH6540828632 INDEX 01 28:51:39 TRACK 04 AUDIO TITLE "Volume IV - The Deception" SONGWRITER "Mike Liechti/Stefan Gabele" ISRC CH6540828633 INDEX 01 41:27:12 TRACK 05 AUDIO TITLE "Volume V - The Descent" SONGWRITER "Dave Thwaites/Marc Grassi" ISRC CH6540828634 INDEX 01 51:58:34 TRACK 06 AUDIO TITLE "Volume VI - The Great Machine" SONGWRITER "Dave Thwaites/Marc Grassi" ISRC CH6540828635 INDEX 01 56:55:25
-----------------------

DON''T MODIFY THIS FILE

-----------------------

PERFORMER: auCDtect Task Manager, ver. 1.5.1RC4 build 1.5.1.5Copyright (c) 2008-2010 y-soft. All rights reservedhttp://y-soft.org

ANALYZER: auCDtect: CD records authenticity detector, version 0.8.2Copyright (c) 2004 Oleg Berngardt. All rights reserved.Copyright (c) 2004 Alexander Djourik. All rights reserved.

FILE: Lepidoptera II - The Book Of Flight.flac Size: 455423361 Hash: 60999725A17A487758FEED35D854C1C7 Accuracy: -m8 Conclusion: CDDA 100% Signature: F19E0A700ED9C1D1D88A0773581A4B8D704792DC
Доп. информация
Marc (RAK) Grassi - keyboards
Mike Liechti - drums
Stefan Gabele - guitars, bass
Dave Thwaites - vocals


Трекер:  [ 27-Окт-2012 13:48 ]

  

Скачать .torrent

Размер .torrent файла 18 KB


Размер: 440 MB
Хэш (hash) релиза: 59fe5c64f5af0aaac94cab9102f6048be2b37b25

Торренты, похожие на RAK - Lepidoptera II-Book of Flight - 2012 скачать торрент

Форум Название Автор Размер S L Добавлен
Rосk | Mеtаl | Аltеrnаtivе, Рunk, Indереndеnt (mр3) ·· (Conceptual Prog-Rock) Rak - Lepidoptera II - Book of Flight - 2012, MP3, 320 kbps Galfimbul 165090797157 MB 0 0 1331647200

17:00

13-Мар-12

Rосk | Mеtаl | Аltеrnаtivе, Рunk, Indереndеnt (mр3) ·· (Symphonic Prog) Rak - Дискография (2 альбома: 2004 - Lepidoptera; 2012 - Lepidoptera II - Book of Flight) - 2004-2012, MP3, 320 kbps Galfimbul 339318464324 MB 0 0 1456854776

20:52

1-Мар-16

Еще никто не оставлял запись к записи скачать торрент RAK - Lepidoptera II-Book of Flight - 2012 . Будь первым!

!Обратная связь