Скачать через торрент музыку Cast - Infinity - 2002, FLAC бесплатно без регистрации torrent

Если у вас наблюдаются проблемы со скриншотами, переходом по ссылками, скачиванием торрентов - проблемы в блокировщике рекламы AdBlock. #хорошегоДня!


Статистика раздачи
Размер:  541 MB   |    Зарегистрирован:  5 лет   |    .torrent скачан:  11 раз   |   
Раздают:  1  
   
Загрузка...
 
Автор Сообщение

Galfimbul

avatar Galfimbul


Cast - Infinity

Жанр: Symphonic Prog
Год выпуска диска: 2002
Страна: Mexico
Производитель диска: Self-Released
Аудио кодек: FLAC
Тип рипа: image+.cue
Битрейт аудио: lossless
Продолжительность: 70:00
Наличие сканов в содержимом раздачи:

Трэклист:
01. Castopolis (5:30)
02. Movieland (9:10)
03. Yuridia (4:47)
04. Never Expect Them To Smile (13:53)
05. Infinity (11:52)
06. Nature''s Way (2:44)
07. Illusion (10:19)
08. Nightmare (7:02)
09. October Winds (4:38)

Состав:
- Francisco Hernandez / vocals, electric and acoustic guitars
- Rodolfo Gonzalez / bass
- Dino Brassea / vocals, flute
- Alfonso Vidales / keyboards
- Enrique Slim / drums and percussion
- Carlos Humaran / electric guitars, backing vocals
- Jorge Vidales / backing vocals

Доп. информация: http://www.progarchives.com/artist.asp?id=51
Exact Audio Copy V1.0 beta 3 from 29. August 2011

EAC extraction logfile from 22. October 2012, 13:12

Cast / Infinity

Used drive : PLEXTOR CD-R PX-W1610A Adapter: 1 ID: 1

Read mode : SecureUtilize accurate stream : YesDefeat audio cache : YesMake use of C2 pointers : No

Read offset correction : 99Overread into Lead-In and Lead-Out : YesFill up missing offset samples with silence : YesDelete leading and trailing silent blocks : NoNull samples used in CRC calculations : YesUsed interface : Installed external ASPI interface

Used output format : User Defined EncoderSelected bitrate : 32 kBit/sQuality : LowAdd ID3 tag : NoCommand line compressor : C:\Program Files\Exact Audio Copy\FLAC\FLAC.EXEAdditional command line options : -8 -V -T "ARTIST=%artist%" -T "ALBUM=%albumtitle%" -T "DATE=%year%" -T "GENRE=%genre%" -T "COMMENT=EAC FLAC -8" %source%

TOC of the extracted CD

Track | Start | Length | Start sector | End sector --------------------------------------------------------- 1 | 0:00.00 | 5:30.58 | 0 | 24807 2 | 5:30.58 | 9:10.42 | 24808 | 66099 3 | 14:41.25 | 4:47.27 | 66100 | 87651 4 | 19:28.52 | 13:53.04 | 87652 | 150130 5 | 33:21.56 | 11:52.21 | 150131 | 203551 6 | 45:14.02 | 2:44.71 | 203552 | 215922 7 | 47:58.73 | 10:19.53 | 215923 | 262400 8 | 58:18.51 | 7:02.48 | 262401 | 294098 9 | 65:21.24 | 4:38.51 | 294099 | 314999

Range status and errors

Selected range

Filename C:\Program Files\BitComet\Downloads\Cast - Infinity (2002)\Cast - Infinity.wav

Peak level 100.0 % Extraction speed 3.5 X Range quality 100.0 % Test CRC 3B5935E5 Copy CRC 3B5935E5 Copy OK

No errors occurred

AccurateRip summary

Track 1 accurately ripped (confidence 1) [25C071F8] (AR v2)Track 2 accurately ripped (confidence 1) [09B9A76F] (AR v2)Track 3 accurately ripped (confidence 1) [41685ACF] (AR v2)Track 4 accurately ripped (confidence 1) [CB80C3EE] (AR v2)Track 5 accurately ripped (confidence 1) [CDF4A494] (AR v2)Track 6 accurately ripped (confidence 1) [43D63BBB] (AR v2)Track 7 accurately ripped (confidence 1) [82B48281] (AR v2)Track 8 accurately ripped (confidence 1) [24CE9E56] (AR v2)Track 9 accurately ripped (confidence 1) [FEA6C63E] (AR v2)

All tracks accurately ripped

End of status report

==== Log checksum 865D06D60BBB0E2BCC49C45762470AE3B29A14D25BF1D7A35D0DD77F926EFF90 ====
REM GENRE "Progressive Rock"REM DATE 2002REM DISCID 66106809REM COMMENT "ExactAudioCopy v1.0b3"PERFORMER "Cast"TITLE "Infinity"FILE "Cast - Infinity.flac" WAVE TRACK 01 AUDIO TITLE "Castopolis" PERFORMER "Cast" INDEX 01 00:00:00 TRACK 02 AUDIO TITLE "Movieland" PERFORMER "Cast" INDEX 00 05:26:74 INDEX 01 05:30:58 TRACK 03 AUDIO TITLE "Yuridia" PERFORMER "Cast" INDEX 00 14:40:41 INDEX 01 14:41:25 TRACK 04 AUDIO TITLE "Never Expect Them To Smile" PERFORMER "Cast" INDEX 00 19:28:27 INDEX 01 19:28:52 TRACK 05 AUDIO TITLE "Infinity" PERFORMER "Cast" INDEX 00 33:18:69 INDEX 01 33:21:56 TRACK 06 AUDIO TITLE "Nature''s Way" PERFORMER "Cast" INDEX 00 45:12:62 INDEX 01 45:14:02 TRACK 07 AUDIO TITLE "Illusion" PERFORMER "Cast" INDEX 00 47:55:11 INDEX 01 47:58:73 TRACK 08 AUDIO TITLE "Nightmare" PERFORMER "Cast" INDEX 00 58:16:60 INDEX 01 58:18:51 TRACK 09 AUDIO TITLE "October Winds" PERFORMER "Cast" INDEX 00 65:19:47 INDEX 01 65:21:24
AUDIOCHECKER v1.2 - by Dester - <a href="mailto:opdester@freemail.hu" class="postLink">opdester@freemail.hu</a>~~~~~~~~~~~~~~~~~

1 -===- C:\Program Files\BitComet\Downloads\Cast - Infinity (2002)\Cast - Infinity.flac Extracted successfully Conclusion: This track looks like CDDA with probability 100%
источник: erro

Трекер:  [ 27-Окт-2012 13:50 ]

  

Скачать .torrent

Размер .torrent файла 11 KB


Размер: 541 MB
Хэш (hash) релиза: 72723d8b6f15ace7c68dd259e38f6b30382c72ff

Еще никто не оставлял запись к записи скачать торрент Cast - Infinity - 2002, FLAC . Будь первым!

!Обратная связь