Скачать через торрент музыку Cast - Al-Bandaluz - 2003, FLAC бесплатно без регистрации torrent

Если у вас наблюдаются проблемы со скриншотами, переходом по ссылками, скачиванием торрентов - проблемы в блокировщике рекламы AdBlock. #хорошегоДня!


Статистика раздачи
Размер:  760 MB   |    Зарегистрирован:  4 года 9 месяцев   |    .torrent скачан:  11 раз   |   
Раздают:  1  
   
Загрузка...
 
Автор Сообщение

Galfimbul

avatar Galfimbul


Cast - Al-Bandaluz

Жанр: Symphonic Prog
Год выпуска диска: 2003
Страна: Mexico
Производитель диска: Musea Records / FGBG 4512.AR
Аудио кодек: FLAC
Тип рипа: image+.cue
Битрейт аудио: lossless
Продолжительность: 47:42 + 48:28
Наличие сканов в содержимом раздачи:

Трэклист:
CD 1:
01. Viajero Inmóvil (7:09)
02. Jerezcali (Pueblo de Dos Mundos) (8:53)
03. Encrucijada (17:25)
a) Ascención
b) Retorno
c) Conversión
04. Lamento del Gato (9:55)
05. Damajuana (4:18)

CD 2:
06. Viento (5:01)
07. El Puente (22:02)
a) Vida Re
b) El Puente
c) Luz Al Final del Túnel
d) Valle de los Sueños
08. la Ballesta (8:46)
09. Ensamble Al-Mayá (5:27)
10. Ansia, Angustia, Desesperación (7:10)

Состав:
- Alfonse Vidales / keyboards, backing vocals
- Kiko King / drums, percussion
- Francisco Hernández / vocals, backing vocals, percussion
- Carlos Humarán / electric and acoustic guitars, vocals
- Flavio Jiménez / bass

Guest musicians:
- Pepe Torres / saxophone, flute, clarinet
- José Luis Algaba / bass
- Lupita Vidales / voices in "El Puente"
- Ismael Cortés, Mario Bocanegra, Enrique Slim / percussion in "Jerezcali"
- Alberto Márquez / keyboards in "Jerezcali"
- Michael Dean Starry / guitar solo in "Damajuana"

Доп. информация: http://www.progarchives.com/artist.asp?id=51
Exact Audio Copy V1.0 beta 3 from 29. August 2011

EAC extraction logfile from 22. October 2012, 14:30

Cast / Al-Bandaluz (CD1)

Used drive : PLEXTOR CD-R PX-W1610A Adapter: 1 ID: 1

Read mode : SecureUtilize accurate stream : YesDefeat audio cache : YesMake use of C2 pointers : No

Read offset correction : 99Overread into Lead-In and Lead-Out : YesFill up missing offset samples with silence : YesDelete leading and trailing silent blocks : NoNull samples used in CRC calculations : YesUsed interface : Installed external ASPI interface

Used output format : User Defined EncoderSelected bitrate : 32 kBit/sQuality : LowAdd ID3 tag : NoCommand line compressor : C:\Program Files\Exact Audio Copy\FLAC\FLAC.EXEAdditional command line options : -8 -V -T "ARTIST=%artist%" -T "ALBUM=%albumtitle%" -T "DATE=%year%" -T "GENRE=%genre%" -T "COMMENT=EAC FLAC -8" %source%

TOC of the extracted CD

Track | Start | Length | Start sector | End sector --------------------------------------------------------- 1 | 0:00.00 | 7:09.17 | 0 | 32191 2 | 7:09.17 | 8:52.63 | 32192 | 72154 3 | 16:02.05 | 17:25.19 | 72155 | 150548 4 | 33:27.24 | 9:55.36 | 150549 | 195209 5 | 43:22.60 | 4:17.42 | 195210 | 214526

Range status and errors

Selected range

Filename C:\Program Files\BitComet\Downloads\Cast - Al-Bandaluz (2003)\Cast - Al-Bandaluz (CD1).wav

Peak level 96.6 % Extraction speed 3.5 X Range quality 100.0 % Test CRC 42F930FB Copy CRC 42F930FB Copy OK

No errors occurred

AccurateRip summary

Track 1 accurately ripped (confidence 1) [12B3969C] (AR v1)Track 2 accurately ripped (confidence 1) [F5A8C4A6] (AR v1)Track 3 accurately ripped (confidence 1) [EB2CB672] (AR v1)Track 4 accurately ripped (confidence 1) [4700B4F7] (AR v1)Track 5 accurately ripped (confidence 1) [D2DC6287] (AR v1)

All tracks accurately ripped

End of status report

==== Log checksum 0D2B236C1F2459778A950475E997D439EF66B22F94EB7AD97D7B598AEB006BC7 ====
REM GENRE "Progressive Rock"REM DATE 2003REM DISCID 340B2C05REM COMMENT "ExactAudioCopy v1.0b3"PERFORMER "Cast"TITLE "Al-Bandaluz (CD1)"FILE "Cast - Al-Bandaluz (CD1).flac" WAVE TRACK 01 AUDIO TITLE "Viajero Inmovil" PERFORMER "Cast" INDEX 01 00:00:00 TRACK 02 AUDIO TITLE "Jerezcali (Pueblo de Dos Mundos)" PERFORMER "Cast" INDEX 01 07:09:17 TRACK 03 AUDIO TITLE "Conversion" PERFORMER "Cast" INDEX 00 16:00:06 INDEX 01 16:02:05 TRACK 04 AUDIO TITLE "Lamento del Gato" PERFORMER "Cast" INDEX 00 33:25:23 INDEX 01 33:27:24 TRACK 05 AUDIO TITLE "Damajuana" PERFORMER "Cast" INDEX 01 43:22:60
Exact Audio Copy V1.0 beta 3 from 29. August 2011

EAC extraction logfile from 22. October 2012, 15:02

Cast / Al-Bandaluz (CD2)

Used drive : PLEXTOR CD-R PX-W1610A Adapter: 1 ID: 1

Read mode : SecureUtilize accurate stream : YesDefeat audio cache : YesMake use of C2 pointers : No

Read offset correction : 99Overread into Lead-In and Lead-Out : YesFill up missing offset samples with silence : YesDelete leading and trailing silent blocks : NoNull samples used in CRC calculations : YesUsed interface : Installed external ASPI interface

Used output format : User Defined EncoderSelected bitrate : 32 kBit/sQuality : LowAdd ID3 tag : NoCommand line compressor : C:\Program Files\Exact Audio Copy\FLAC\FLAC.EXEAdditional command line options : -8 -V -T "ARTIST=%artist%" -T "ALBUM=%albumtitle%" -T "DATE=%year%" -T "GENRE=%genre%" -T "COMMENT=EAC FLAC -8" %source%

TOC of the extracted CD

Track | Start | Length | Start sector | End sector --------------------------------------------------------- 1 | 0:00.00 | 5:01.56 | 0 | 22630 2 | 5:01.56 | 22:01.66 | 22631 | 121771 3 | 27:03.47 | 8:46.18 | 121772 | 161239 4 | 35:49.65 | 5:26.17 | 161240 | 185706 5 | 41:16.07 | 7:10.05 | 185707 | 217961

Range status and errors

Selected range

Filename C:\Program Files\BitComet\Downloads\Cast - Al-Bandaluz (2003)\Cast - Al-Bandaluz (CD2).wav

Peak level 100.0 % Extraction speed 3.5 X Range quality 100.0 % Test CRC DE22B018 Copy CRC DE22B018 Copy OK

No errors occurred

AccurateRip summary

Track 1 accurately ripped (confidence 1) [9562F983] (AR v1)Track 2 accurately ripped (confidence 1) [9BF0A1CE] (AR v1)Track 3 accurately ripped (confidence 1) [5A622ED9] (AR v1)Track 4 accurately ripped (confidence 1) [87C2F4F2] (AR v1)Track 5 accurately ripped (confidence 1) [97E6A13A] (AR v1)

All tracks accurately ripped

End of status report

==== Log checksum FA46EE910F5B9AD997B7BE34DB00239F538BBB32ECD43C202B375731970080C9 ====
REM GENRE "Progressive Rock"REM DATE 2003REM DISCID 340B5A05REM COMMENT "ExactAudioCopy v1.0b3"PERFORMER "Cast"TITLE "Al-Bandaluz (CD2)"FILE "Cast - Al-Bandaluz (CD2).flac" WAVE TRACK 01 AUDIO TITLE "Viento" PERFORMER "Cast" INDEX 01 00:00:00 TRACK 02 AUDIO TITLE "El Puente" PERFORMER "Cast" INDEX 00 04:59:55 INDEX 01 05:01:56 TRACK 03 AUDIO TITLE "La Ballesta" PERFORMER "Cast" INDEX 01 27:03:47 TRACK 04 AUDIO TITLE "Ensamble Al-Maya" PERFORMER "Cast" INDEX 01 35:49:65 TRACK 05 AUDIO TITLE "Ansia, Angustia, Desperacion" PERFORMER "Cast" INDEX 00 41:13:45 INDEX 01 41:16:07
источник: erro

Трекер:  [ 27-Окт-2012 13:48 ]

  

Скачать .torrent

Размер .torrent файла 16 KB


Размер: 760 MB
Хэш (hash) релиза: 12a82199fed80f08aa31ee0a5c88e2f35219e96b

Еще никто не оставлял запись к записи скачать торрент Cast - Al-Bandaluz - 2003, FLAC . Будь первым!

!Обратная связь