Скачать через торрент музыку Prem Rana Autari - Himal - 2000, FLAC бесплатно без регистрации torrent

Если у вас наблюдаются проблемы со скриншотами, переходом по ссылками, скачиванием торрентов - проблемы в блокировщике рекламы AdBlock. #хорошегоДня!


Статистика раздачи
Размер:  346 MB   |    Зарегистрирован:  6 лет 8 месяцев   |    .torrent скачан:  415 раз   |   
Раздают:  1   Качают:  1  
   
Загрузка...
 
Автор Сообщение

KuznecSeti




Жанр: Meditative
Год выпуска диска: 2000
Производитель диска: Nepal
Аудио кодек: FLAC
Тип рипа: image+.cue
Битрейт аудио: lossless
Продолжительность: 66:26
Трэклист:
01. Imagination (18:36)
02. Faires (14:34)
03. The Bliss (14:48)
04. Maitighar (9:33)
05. Sigh (8:54)
Доп. информация:
Настоящий,лицензионный непальский диск.Куплен в Катманду.

Скачать фрагмент

Код:

Exact Audio Copy V0.99 prebeta 4 from 23. January 2008
Отчёт EAC об извлечении, выполненном 8. ноября 2008, 13:28
Prem Rana Autari / Himal - Himalayan Meditative Music
Дисковод: PIONEER DVD-RW  DVR-215D   Adapter: 2  ID: 1
Режим чтения                 : Достоверность
Использование точного потока : Да
Отключение кэша аудио        : Да
Использование указателей C2  : Нет
Коррекция смещения при чтении                     : 48
Способность читать области Lead-in и Lead-out     : Нет
Заполнение пропущенных сэмплов тишиной            : Да
Удаление блоков с тишиной в начале и конце        : Нет
При вычислениях CRC использовались нулевые сэмплы : Да
Интерфейс                                         : Установленный внешний ASPI-интерфейс
Выходной формат : Внутренние WAV-операции
Формат сэмплов  : 44.100 Гц; 16 бит; стерео
TOC извлечённого CD
     Трек |   Старт  | Длительность | Начальный сектор | Конечный сектор
    ---------------------------------------------------------------------
       1  |  0:00.00 |   18:36.16   |           0      |      83715
       2  | 18:36.16 |   14:34.31   |       83716      |     149296
       3  | 33:10.47 |   14:47.50   |      149297      |     215871
       4  | 47:58.22 |    9:33.21   |      215872      |     258867
       5  | 57:31.43 |    8:53.70   |      258868      |     298912
Характеристики диапазона извлечения и сообщения об ошибках
Выбранный диапазон
     Имя файла E:\torrent\Prem Rana Autari - Himal\Prem Rana Autari - Himal - Himalayan Meditative Music.wav
     Пиковый уровень 99.7 %
     Качество диапазона 100.0 %
     CRC теста 617CCE40
     CRC копии 617CCE40
     Копирование... OK
Ошибок не произошло
AccurateRip: сводка
Трек  1  нет в базе данных
Трек  2  нет в базе данных
Трек  3  нет в базе данных
Трек  4  нет в базе данных
Трек  5  нет в базе данных
Ни одного трека нет в базе AccurateRip
Started at: ïîíåäåëüíèê, 10. 11. 2008. - 11:59.02
1 file found
1 -===- E:\torrent\Prem Rana Autari - Himal\Prem Rana Autari - Himal - Himalayan Meditative Music.flac
Extracted successfully
Conclusion: this track is CDDA with probability 100%
Tempfile successfully deleted.
Finished at: ïîíåäåëüíèê, 10. 11. 2008. - 12:06.54 (operation time: 0:07.51)


Трекер:  [ 01-Дек-2010 13:00 ]

  

Скачать .torrent

Размер .torrent файла 14 KB


Размер: 346 MB
Хэш (hash) релиза: 506694e66df623cd0549b491f6c36486fb667f63

Комедиант

 !  D-Side:
Исправьте шапку.

Хотите добавить комментарий к записи скачать торрент Prem Rana Autari - Himal - 2000, FLAC

!Обратная связь