Скачать через торрент музыку Elvis Presley -=1991=- Collectors Gold бесплатно без регистрации torrent

Если у вас наблюдаются проблемы со скриншотами, переходом по ссылками, скачиванием торрентов - проблемы в блокировщике рекламы AdBlock. #хорошегоДня!


Статистика раздачи
Размер:  668 MB   |    Зарегистрирован:  4 года 9 месяцев   |    .torrent скачан:  19 раз   |   
Раздают:  1  
   
Загрузка...
 
Автор Сообщение

_N_

avatar _N_


Elvis Presley -=1991=- Collectors Gold (3CD)

Жанр: Rock & Roll, Soft Rock
Страна-производитель диска: США
Год издания: 1991
Издатель (лейбл): RCA
Номер по каталогу: 3114-2-R
Страна: США
Аудиокодек: APE (*.ape)
Тип рипа: image+.cue
Битрейт аудио: lossless
Продолжительность: 2:09:57
Источник (релизер): личная коллекция
Наличие сканов в содержимом раздачи: да

Треклист CD1 - Hollywood:
01 - G.I. Blues [2:43]
02 - Pocketful Of Rainbows [3:16]
03 - Big Boots [1:20]
04 - Black Star [3:07]
05 - Summer Kisses, Winter Tears [2:19]
06 - I Slipped, I Stumbled, I Fell [1:38]
07 - Lonely Man [2:02]
08 - What A Wonderful Life [2:59]
09 - A Whistling Tune [1:59]
10 - Beyond The Bend [2:16]
11 - One Broken Heart For Sale [2:21]
12 - You''re The Boss [2:46]
13 - Roustabout [2:04]
14 - Girl Happy [2:13]
15 - So Close, Yet So Far [3:05]
16 - Stop, Look And Listen [1:28]
17 - Am I Ready [2:28]
18 - How Can You Lose What You Never Had [3:40]
Exact Audio Copy V0.99 prebeta 5 from 4. May 2009

Отчёт EAC об извлечении, выполненном 18. марта 2012, 16:19

Elvis Presley / Collectors Gold (CD1 - Hollywood)

Дисковод: ASUS DRW-24B1ST Adapter: 0 ID: 0

Режим чтения : ДостоверностьИспользование точного потока : ДаОтключение кэша аудио : ДаИспользование указателей C2 : Нет

Коррекция смещения при чтении : 6Способность читать области Lead-in и Lead-out : НетЗаполнение пропущенных сэмплов тишиной : ДаУдаление блоков с тишиной в начале и конце : НетПри вычислениях CRC использовались нулевые сэмплы : ДаИнтерфейс : Встроенный Win32-интерфейс для Win NT/2000

Выходной формат : Внутренние WAV-операцииФормат сэмплов : 44.100 Гц; 16 бит; стерео

TOC извлечённого CD

Трек | Старт | Длительность | Начальный сектор | Конечный сектор --------------------------------------------------------------------- 1 | 0:00.00 | 2:42.67 | 0 | 12216 2 | 2:42.67 | 3:15.70 | 12217 | 26911 3 | 5:58.62 | 1:20.23 | 26912 | 32934 4 | 7:19.10 | 3:07.07 | 32935 | 46966 5 | 10:26.17 | 2:18.45 | 46967 | 57361 6 | 12:44.62 | 1:38.05 | 57362 | 64716 7 | 14:22.67 | 2:02.20 | 64717 | 73886 8 | 16:25.12 | 2:58.73 | 73887 | 87309 9 | 19:24.10 | 1:58.42 | 87310 | 96201 10 | 21:22.52 | 2:15.70 | 96202 | 106396 11 | 23:38.47 | 2:21.23 | 106397 | 116994 12 | 25:59.70 | 2:45.45 | 116995 | 129414 13 | 28:45.40 | 2:04.30 | 129415 | 138744 14 | 30:49.70 | 2:13.25 | 138745 | 148744 15 | 33:03.20 | 3:05.00 | 148745 | 162619 16 | 36:08.20 | 1:28.25 | 162620 | 169244 17 | 37:36.45 | 2:27.47 | 169245 | 180316 18 | 40:04.17 | 3:40.08 | 180317 | 196824

Характеристики диапазона извлечения и сообщения об ошибках

Выбранный диапазон

Имя файла J:\=НА РАЗБОР=\!=! EXTRACT\Elvis Presley - Collectors Gold (CD1 - Hollywood).wav

Пиковый уровень 93.2 % Качество диапазона 100.0 % CRC теста 74BA9012 CRC копии 74BA9012 Копирование... OK

Ошибок не произошло

AccurateRip: сводка

Трек 1 точное извлечение (доверие 9) [D8E2CAB9]Трек 2 точное извлечение (доверие 10) [7609F7CC]Трек 3 точное извлечение (доверие 9) [E1C11E82]Трек 4 точное извлечение (доверие 9) [B0A01A01]Трек 5 точное извлечение (доверие 9) [718892FF]Трек 6 точное извлечение (доверие 9) [EE9AC410]Трек 7 точное извлечение (доверие 9) [B5B63719]Трек 8 точное извлечение (доверие 8) [6EA8AE5E]Трек 9 точное извлечение (доверие 9) [013D9473]Трек 10 точное извлечение (доверие 9) [A615EC1C]Трек 11 точное извлечение (доверие 9) [B687D09F]Трек 12 точное извлечение (доверие 9) [E04FE8A1]Трек 13 точное извлечение (доверие 8) [B8312A6F]Трек 14 точное извлечение (доверие 9) [18F31AD9]Трек 15 точное извлечение (доверие 9) [3E3CED6A]Трек 16 точное извлечение (доверие 9) [DEADEC4C]Трек 17 точное извлечение (доверие 9) [16E8C28A]Трек 18 точное извлечение (доверие 9) [FACF4D64]

Все треки извлечены точно

Конец отчёта
Треклист CD2 - Nashville:
01 - Like A Baby [2:53]
02 - There''s Always Me [2:16]
03 - I Want You With Me [2:13]
04 - Gently [2:20]
05 - Give Me The Right [2:42]
06 - I Met Her Today [2:43]
07 - Night Rider [2:40]
08 - Just Tell Her Jim Said Hello [1:53]
09 - Ask Me [2:07]
10 - Memphis, Tennessee [2:11]
11 - Love Me Tonight [2:03]
12 - Witchcraft [2:32]
13 - Come What May (You Are Mine) [1:52]
14 - Love Letters [3:40]
15 - Going Home [3:01]
Exact Audio Copy V0.99 prebeta 5 from 4. May 2009

Отчёт EAC об извлечении, выполненном 18. марта 2012, 16:05

Elvis Presley / Collectors Gold (CD2 - Nashville)

Дисковод: ASUS DRW-24B1ST Adapter: 0 ID: 0

Режим чтения : ДостоверностьИспользование точного потока : ДаОтключение кэша аудио : ДаИспользование указателей C2 : Нет

Коррекция смещения при чтении : 6Способность читать области Lead-in и Lead-out : НетЗаполнение пропущенных сэмплов тишиной : ДаУдаление блоков с тишиной в начале и конце : НетПри вычислениях CRC использовались нулевые сэмплы : ДаИнтерфейс : Встроенный Win32-интерфейс для Win NT/2000

Выходной формат : Внутренние WAV-операцииФормат сэмплов : 44.100 Гц; 16 бит; стерео

TOC извлечённого CD

Трек | Старт | Длительность | Начальный сектор | Конечный сектор --------------------------------------------------------------------- 1 | 0:00.00 | 2:53.07 | 0 | 12981 2 | 2:53.07 | 2:15.60 | 12982 | 23166 3 | 5:08.67 | 2:13.18 | 23167 | 33159 4 | 7:22.10 | 2:20.15 | 33160 | 43674 5 | 9:42.25 | 2:41.42 | 43675 | 55791 6 | 12:23.67 | 2:42.65 | 55792 | 68006 7 | 15:06.57 | 2:40.00 | 68007 | 80006 8 | 17:46.57 | 1:52.65 | 80007 | 88471 9 | 19:39.47 | 2:06.60 | 88472 | 97981 10 | 21:46.32 | 2:11.28 | 97982 | 107834 11 | 23:57.60 | 2:02.72 | 107835 | 117056 12 | 26:00.57 | 2:31.50 | 117057 | 128431 13 | 28:32.32 | 1:52.30 | 128432 | 136861 14 | 30:24.62 | 3:39.60 | 136862 | 153346 15 | 34:04.47 | 3:00.73 | 153347 | 166919

Характеристики диапазона извлечения и сообщения об ошибках

Выбранный диапазон

Имя файла J:\=НА РАЗБОР=\!=! EXTRACT\Elvis Presley - Collectors Gold (CD2 - Nashville).wav

Пиковый уровень 97.1 % Качество диапазона 99.9 % CRC теста BE29F9DE CRC копии BE29F9DE Копирование... OK

Ошибок не произошло

AccurateRip: сводка

Трек 1 точное извлечение (доверие 9) [4FC1D036]Трек 2 точное извлечение (доверие 9) [AF9E4BC2]Трек 3 точное извлечение (доверие 9) [D7AEB06B]Трек 4 точное извлечение (доверие 9) [94ED9436]Трек 5 точное извлечение (доверие 9) [57C9A6E8]Трек 6 точное извлечение (доверие 9) [55174D94]Трек 7 точное извлечение (доверие 9) [F3014E91]Трек 8 точное извлечение (доверие 9) [9F49DB6A]Трек 9 точное извлечение (доверие 9) [221780B9]Трек 10 точное извлечение (доверие 9) [619556C7]Трек 11 точное извлечение (доверие 9) [7020FCAD]Трек 12 точное извлечение (доверие 9) [E33336D2]Трек 13 точное извлечение (доверие 9) [0AB821B4]Трек 14 точное извлечение (доверие 9) [DFAD5C17]Трек 15 точное извлечение (доверие 8) [D4ECC309]

Все треки извлечены точно

Конец отчёта
Треклист CD3 - Live in Las Vegas:
01 - Blue Suede Shoes [2:35]
02 - I Got A Woman [2:36]
03 - Heartbreak Hotel [1:57]
04 - Love Me Tender [3:15]
05 - Baby, What You Want Me To Do [2:18]
06 - Runaway [2:49]
07 - Surrender / Are You Lonesome Tonight [3:16]
08 - Rubber Neckin'' [2:20]
09 - Memories [2:44]
10 - Introductions By Elvis Presley [2:08]
11 - Jailhouse Rock / Don''t Be Cruel [2:15]
12 - Inherit The Wind [3:03]
13 - This Is The Story [2:30]
14 - Mystery Train / Tiger Man [3:27]
15 - Funny How Time Slips Away [2:34]
16 - Loving You / Reconsider Baby [3:36]
17 - What''d I Say [5:44]
Exact Audio Copy V0.99 prebeta 5 from 4. May 2009

Отчёт EAC об извлечении, выполненном 18. марта 2012, 16:33

Elvis Presley / Collectors Gold (CD3 - Live In Las Vegas)

Дисковод: ASUS DRW-24B1ST Adapter: 0 ID: 0

Режим чтения : ДостоверностьИспользование точного потока : ДаОтключение кэша аудио : ДаИспользование указателей C2 : Нет

Коррекция смещения при чтении : 6Способность читать области Lead-in и Lead-out : НетЗаполнение пропущенных сэмплов тишиной : ДаУдаление блоков с тишиной в начале и конце : НетПри вычислениях CRC использовались нулевые сэмплы : ДаИнтерфейс : Встроенный Win32-интерфейс для Win NT/2000

Выходной формат : Внутренние WAV-операцииФормат сэмплов : 44.100 Гц; 16 бит; стерео

TOC извлечённого CD

Трек | Старт | Длительность | Начальный сектор | Конечный сектор --------------------------------------------------------------------- 1 | 0:00.00 | 2:34.45 | 0 | 11594 2 | 2:34.45 | 2:36.10 | 11595 | 23304 3 | 5:10.55 | 1:57.25 | 23305 | 32104 4 | 7:08.05 | 3:15.08 | 32105 | 46737 5 | 10:23.13 | 2:17.40 | 46738 | 57052 6 | 12:40.53 | 2:48.72 | 57053 | 69724 7 | 15:29.50 | 3:16.18 | 69725 | 84442 8 | 18:45.68 | 2:20.00 | 84443 | 94942 9 | 21:05.68 | 2:44.07 | 94943 | 107249 10 | 23:50.00 | 2:07.45 | 107250 | 116819 11 | 25:57.45 | 2:15.00 | 116820 | 126944 12 | 28:12.45 | 3:03.18 | 126945 | 140687 13 | 31:15.63 | 2:30.12 | 140688 | 151949 14 | 33:46.00 | 3:26.68 | 151950 | 167467 15 | 37:12.68 | 2:34.17 | 167468 | 179034 16 | 39:47.10 | 3:35.70 | 179035 | 195229 17 | 43:23.05 | 5:43.70 | 195230 | 221024

Характеристики диапазона извлечения и сообщения об ошибках

Выбранный диапазон

Имя файла J:\=НА РАЗБОР=\!=! EXTRACT\Elvis Presley - Collectors Gold (CD3 - Live In Las Vegas).wav

Пиковый уровень 97.3 % Качество диапазона 99.9 % CRC теста 3553874D CRC копии 3553874D Копирование... OK

Ошибок не произошло

AccurateRip: сводка

Трек 1 точное извлечение (доверие 9) [EB271D6B]Трек 2 точное извлечение (доверие 9) [3CD3DEF9]Трек 3 точное извлечение (доверие 9) [23D68EF8]Трек 4 точное извлечение (доверие 9) [01C3CFD1]Трек 5 точное извлечение (доверие 9) [3A894020]Трек 6 точное извлечение (доверие 9) [92F6C103]Трек 7 точное извлечение (доверие 9) [449014C6]Трек 8 точное извлечение (доверие 9) [98B1BA39]Трек 9 точное извлечение (доверие 9) [094C46C5]Трек 10 точное извлечение (доверие 9) [5A4EC67F]Трек 11 точное извлечение (доверие 9) [BF4C5D76]Трек 12 точное извлечение (доверие 9) [620BC685]Трек 13 точное извлечение (доверие 9) [6167A350]Трек 14 точное извлечение (доверие 9) [EDBAE8A0]Трек 15 точное извлечение (доверие 9) [17145946]Трек 16 точное извлечение (доверие 8) [29A92E18]Трек 17 точное извлечение (доверие 9) [52D84A67]

Все треки извлечены точно

Конец отчёта


Трекер:  [ 22-Окт-2012 15:38 ]

  

Скачать .torrent

Размер .torrent файла 16 KB


Размер: 668 MB
Хэш (hash) релиза: f2048be43b62fe6ecccccb16f809aa2fc4be11f2

Еще никто не оставлял запись к записи скачать торрент Elvis Presley -=1991=- Collectors Gold . Будь первым!

!Обратная связь