Скачать через торрент музыку Lou Reed - NYC Man: The Collection бесплатно без регистрации torrent

Если у вас наблюдаются проблемы со скриншотами, переходом по ссылками, скачиванием торрентов - проблемы в блокировщике рекламы AdBlock. #хорошегоДня!


Статистика раздачи
Размер:  955 MB   |    Зарегистрирован:  4 года 9 месяцев   |    .torrent скачан:  10 раз   |   
Раздают:  1  
   
Загрузка...
 
Автор Сообщение

_N_

avatar _N_


Lou Reed / NYC Man: The Collection (2 CD)

Жанр: Alternative Rock
Страна-производитель диска: US
Год издания: 2003
Издатель (лейбл): RCA
Номер по каталогу: 82876 50564 2
Страна: US
Аудиокодек: FLAC (*.flac)
Тип рипа: tracks+.cue
Битрейт аудио: lossless
Продолжительность: 02:36:12
Источник (релизер): internet
Наличие сканов в содержимом раздачи: нет
Треклист:
01 Who Am I? (Tripitina''s Song) 5:3302 Sweet Jane 3:0103 Rock ''N'' Roll 4:4004 I''m Waiting For The Man 4:3605 White Light/White Heat 5:0006 Street Hassle 11:0007 Berlin 3:2308 Caroline Says II 4:1209 The Kids 7:4910 Walk On The Wild Side 4:1111 Kill Your Sons 4:0812 Vicious 2:5713 The Blue Mask 5:0214 I''ll Be Your Mirror 2:4615 Magic And Loss - The Summation 6:3516 Ecstasy 4:30
01 I Wanna Be Black 6:2902 Temporary Thing 5:1403 Shooting Star 3:1204 Legendary Hearts 3:0505 Heroin 8:2206 Coney Island Baby 6:3607 The Last Shot 3:2008 The Bells 9:2009 Perfect Day 3:4310 Sally Can''t Dance 2:5511 Satellite Of Love 3:3712 NYC Man 4:5513 Dirty Blvd. 3:3014 Rock Minuet 6:5615 Pale Blue Eyes 5:38
Exact Audio Copy V1.0 beta 3 from 29. August 2011

EAC extraction logfile from 10. August 2012, 14:31

Lou Reed / NYC Man - The Collection (Disc 1)

Used drive : TSSTcorpCDDVDW SH-S223L Adapter: 5 ID: 0

Read mode : Secure
Utilize accurate stream : Yes
Defeat audio cache : No
Make use of C2 pointers : No

Read offset correction : 6
Overread into Lead-In and Lead-Out : No
Fill up missing offset samples with silence : Yes
Delete leading and trailing silent blocks : No
Null samples used in CRC calculations : Yes
Used interface : Native Win32 interface for Win NT & 2000
Gap handling : Appended to previous track

Used output format : User Defined Encoder
Selected bitrate : 1024 kBit/s
Quality : High
Add ID3 tag : No
Command line compressor : C:\Program Files (x86)\Exact Audio Copy\FLAC\FLAC.EXE
Additional command line options : -6 -V -T "ARTIST=%artist%" -T "TITLE=%title%" -T "ALBUM=%albumtitle%" -T "DATE=%year%" -T "TRACKNUMBER=%tracknr%" -T "GENRE=%genre%" -T "COMMENT=%comment%" -T "BAND=%albuminterpret%" -T "ALBUMARTIST=%albuminterpret%" -T "COMPOSER=%composer%" %haslyrics%--tag-from-file=LYRICS="%lyricsfile%"%haslyrics% -T "DISCNUMBER=%cdnumber%" -T "TOTALDISCS=%totalcds%" -T "TOTALTRACKS=%numtracks%" %hascover%--picture="%coverfile%"%hascover% %source% -o %dest%

TOC of the extracted CD

Track | Start | Length | Start sector | End sector
---------------------------------------------------------
1 | 0:00.00 | 5:33.67 | 0 | 25041
2 | 5:33.67 | 3:01.33 | 25042 | 38649
3 | 8:35.25 | 4:40.47 | 38650 | 59696
4 | 13:15.72 | 4:36.48 | 59697 | 80444
5 | 17:52.45 | 5:00.55 | 80445 | 102999
6 | 22:53.25 | 11:00.10 | 103000 | 152509
7 | 33:53.35 | 3:23.42 | 152510 | 167776
8 | 37:17.02 | 4:12.40 | 167777 | 186716
9 | 41:29.42 | 7:49.38 | 186717 | 221929
10 | 49:19.05 | 4:11.30 | 221930 | 240784
11 | 53:30.35 | 4:08.45 | 240785 | 259429
12 | 57:39.05 | 2:57.35 | 259430 | 272739
13 | 60:36.40 | 5:02.52 | 272740 | 295441
14 | 65:39.17 | 2:46.35 | 295442 | 307926
15 | 68:25.52 | 6:35.63 | 307927 | 337614
16 | 75:01.40 | 4:27.02 | 337615 | 357641

Track 1

Filename C:\Users\Admin\Documents\01 EAC Rips\01. Who Am I - Lou Reed.wav

Pre-gap length 0:00:02.00

Peak level 100.0 %
Extraction speed 8.5 X
Track quality 100.0 %
Test CRC 54E069AC
Copy CRC 54E069AC
Accurately ripped (confidence 6) [CB14D839] (AR v2)
Copy OK

Track 2

Filename C:\Users\Admin\Documents\01 EAC Rips\02. Sweet Jane - Lou Reed.wav

Pre-gap length 0:00:00.22

Peak level 100.0 %
Extraction speed 9.2 X
Track quality 100.0 %
Test CRC 6A278306
Copy CRC 6A278306
Accurately ripped (confidence 6) [636E9A4E] (AR v2)
Copy OK

Track 3

Filename C:\Users\Admin\Documents\01 EAC Rips\03. Rock ''N'' Roll - Lou Reed.wav

Pre-gap length 0:00:00.53

Peak level 100.0 %
Extraction speed 9.9 X
Track quality 100.0 %
Test CRC A1E892AF
Copy CRC A1E892AF
Accurately ripped (confidence 6) [1CEA8D9D] (AR v2)
Copy OK

Track 4

Filename C:\Users\Admin\Documents\01 EAC Rips\04. I''m Waiting For The Man - Lou Reed.wav

Peak level 98.8 %
Extraction speed 10.6 X
Track quality 100.0 %
Test CRC 1448270C
Copy CRC 1448270C
Accurately ripped (confidence 6) [BADF731D] (AR v2)
Copy OK

Track 5

Filename C:\Users\Admin\Documents\01 EAC Rips\05. White Light,White Heat - Lou Reed.wav

Peak level 96.6 %
Extraction speed 11.3 X
Track quality 100.0 %
Test CRC 7A6427AC
Copy CRC 7A6427AC
Accurately ripped (confidence 6) [5A91928A] (AR v2)
Copy OK

Track 6

Filename C:\Users\Admin\Documents\01 EAC Rips\06. Street Hassle - Lou Reed.wav

Peak level 100.0 %
Extraction speed 12.4 X
Track quality 100.0 %
Test CRC 22A1AE24
Copy CRC 22A1AE24
Accurately ripped (confidence 6) [9DBC3593] (AR v2)
Copy OK

Track 7

Filename C:\Users\Admin\Documents\01 EAC Rips\07. Berlin - Lou Reed.wav

Peak level 100.0 %
Extraction speed 12.9 X
Track quality 100.0 %
Test CRC C1CC1315
Copy CRC C1CC1315
Accurately ripped (confidence 6) [3D08AD45] (AR v2)
Copy OK

Track 8

Filename C:\Users\Admin\Documents\01 EAC Rips\08. Caroline Says II - Lou Reed.wav

Pre-gap length 0:00:00.27

Peak level 97.7 %
Extraction speed 13.5 X
Track quality 100.0 %
Test CRC 8B98FA38
Copy CRC 8B98FA38
Accurately ripped (confidence 6) [6508A764] (AR v2)
Copy OK

Track 9

Filename C:\Users\Admin\Documents\01 EAC Rips\09. The Kids - Lou Reed.wav

Pre-gap length 0:00:00.30

Peak level 96.6 %
Extraction speed 14.2 X
Track quality 100.0 %
Test CRC 160B32B6
Copy CRC 160B32B6
Accurately ripped (confidence 6) [57136605] (AR v2)
Copy OK

Track 10

Filename C:\Users\Admin\Documents\01 EAC Rips\10. Walk On The Wild Side - Lou Reed.wav

Pre-gap length 0:00:00.28

Peak level 100.0 %
Extraction speed 14.6 X
Track quality 100.0 %
Test CRC 1FF61D2E
Copy CRC 1FF61D2E
Accurately ripped (confidence 6) [53E2255A] (AR v2)
Copy OK

Track 11

Filename C:\Users\Admin\Documents\01 EAC Rips\11. Kill Your Sons - Lou Reed.wav

Peak level 100.0 %
Extraction speed 15.0 X
Track quality 100.0 %
Test CRC 7BEA9364
Copy CRC 7BEA9364
Accurately ripped (confidence 6) [D9D8C239] (AR v2)
Copy OK

Track 12

Filename C:\Users\Admin\Documents\01 EAC Rips\12. Vicious - Lou Reed.wav

Peak level 100.0 %
Extraction speed 15.2 X
Track quality 100.0 %
Test CRC 3E624E96
Copy CRC 3E624E96
Accurately ripped (confidence 6) [7F46C4BA] (AR v2)
Copy OK

Track 13

Filename C:\Users\Admin\Documents\01 EAC Rips\13. The Blue Mask - Lou Reed.wav

Pre-gap length 0:00:01.15

Peak level 100.0 %
Extraction speed 15.9 X
Track quality 100.0 %
Test CRC CB2974E1
Copy CRC CB2974E1
Accurately ripped (confidence 6) [408FD125] (AR v2)
Copy OK

Track 14

Filename C:\Users\Admin\Documents\01 EAC Rips\14. I''ll Be Your Mirror - Lou Reed.wav

Pre-gap length 0:00:01.37

Peak level 94.4 %
Extraction speed 15.7 X
Track quality 100.0 %
Test CRC E9889ED7
Copy CRC E9889ED7
Accurately ripped (confidence 6) [A81863E9] (AR v2)
Copy OK

Track 15

Filename C:\Users\Admin\Documents\01 EAC Rips\15. Magic And Loss - The Summation - Lou Reed.wav

Peak level 100.0 %
Extraction speed 16.5 X
Track quality 100.0 %
Test CRC 23CC61C3
Copy CRC 23CC61C3
Accurately ripped (confidence 6) [191CD3C1] (AR v2)
Copy OK

Track 16

Filename C:\Users\Admin\Documents\01 EAC Rips\16. Ecstasy - Lou Reed.wav

Pre-gap length 0:00:00.08

Peak level 100.0 %
Extraction speed 16.7 X
Track quality 100.0 %
Test CRC 939307B2
Copy CRC 939307B2
Accurately ripped (confidence 6) [91AA55FA] (AR v2)
Copy OK

All tracks accurately ripped

No errors occurred

End of status report
Exact Audio Copy V1.0 beta 3 from 29. August 2011

EAC extraction logfile from 10. August 2012, 14:46

Lou Reed / NYC Man - The Collection (Disc 2)

Used drive : TSSTcorpCDDVDW SH-S223L Adapter: 5 ID: 0

Read mode : Secure
Utilize accurate stream : Yes
Defeat audio cache : No
Make use of C2 pointers : No

Read offset correction : 6
Overread into Lead-In and Lead-Out : No
Fill up missing offset samples with silence : Yes
Delete leading and trailing silent blocks : No
Null samples used in CRC calculations : Yes
Used interface : Native Win32 interface for Win NT & 2000
Gap handling : Appended to previous track

Used output format : User Defined Encoder
Selected bitrate : 1024 kBit/s
Quality : High
Add ID3 tag : No
Command line compressor : C:\Program Files (x86)\Exact Audio Copy\FLAC\FLAC.EXE
Additional command line options : -6 -V -T "ARTIST=%artist%" -T "TITLE=%title%" -T "ALBUM=%albumtitle%" -T "DATE=%year%" -T "TRACKNUMBER=%tracknr%" -T "GENRE=%genre%" -T "COMMENT=%comment%" -T "BAND=%albuminterpret%" -T "ALBUMARTIST=%albuminterpret%" -T "COMPOSER=%composer%" %haslyrics%--tag-from-file=LYRICS="%lyricsfile%"%haslyrics% -T "DISCNUMBER=%cdnumber%" -T "TOTALDISCS=%totalcds%" -T "TOTALTRACKS=%numtracks%" %hascover%--picture="%coverfile%"%hascover% %source% -o %dest%

TOC of the extracted CD

Track | Start | Length | Start sector | End sector
---------------------------------------------------------
1 | 0:00.00 | 6:29.35 | 0 | 29209
2 | 6:29.35 | 5:14.37 | 29210 | 52796
3 | 11:43.72 | 3:12.05 | 52797 | 67201
4 | 14:56.02 | 3:05.03 | 67202 | 81079
5 | 18:01.05 | 8:22.07 | 81080 | 118736
6 | 26:23.12 | 6:36.23 | 118737 | 148459
7 | 32:59.35 | 3:20.55 | 148460 | 163514
8 | 36:20.15 | 9:20.47 | 163515 | 205561
9 | 45:40.62 | 3:43.70 | 205562 | 222356
10 | 49:24.57 | 2:55.08 | 222357 | 235489
11 | 52:19.65 | 3:37.65 | 235490 | 251829
12 | 55:57.55 | 4:55.25 | 251830 | 273979
13 | 60:53.05 | 3:30.52 | 273980 | 289781
14 | 64:23.57 | 6:56.25 | 289782 | 321006
15 | 71:20.07 | 5:38.13 | 321007 | 346369

Track 1

Filename C:\Users\Admin\Documents\01 EAC Rips\01. I Wanna Be Black (Live) - Lou Reed.wav

Pre-gap length 0:00:02.00

Peak level 100.0 %
Extraction speed 8.6 X
Track quality 100.0 %
Test CRC A922DF04
Copy CRC A922DF04
Accurately ripped (confidence 6) [B2AFD3A9] (AR v2)
Copy OK

Track 2

Filename C:\Users\Admin\Documents\01 EAC Rips\02. Temporary Thing - Lou Reed.wav

Peak level 100.0 %
Extraction speed 9.7 X
Track quality 100.0 %
Test CRC 9968F604
Copy CRC 9968F604
Accurately ripped (confidence 6) [CF26933B] (AR v2)
Copy OK

Track 3

Filename C:\Users\Admin\Documents\01 EAC Rips\03. Shooting Star - Lou Reed.wav

Pre-gap length 0:00:00.07

Peak level 100.0 %
Extraction speed 10.2 X
Track quality 100.0 %
Test CRC 11924317
Copy CRC 11924317
Accurately ripped (confidence 6) [205077F2] (AR v2)
Copy OK

Track 4

Filename C:\Users\Admin\Documents\01 EAC Rips\04. Legendary Hearts - Lou Reed.wav

Pre-gap length 0:00:00.72

Peak level 100.0 %
Extraction speed 10.7 X
Track quality 100.0 %
Test CRC 59F5D6ED
Copy CRC 59F5D6ED
Accurately ripped (confidence 6) [D213F6A1] (AR v2)
Copy OK

Track 5

Filename C:\Users\Admin\Documents\01 EAC Rips\05. Heroin (Live) - Lou Reed.wav

Pre-gap length 0:00:00.15

Peak level 100.0 %
Extraction speed 11.6 X
Track quality 100.0 %
Test CRC A7B2A986
Copy CRC A7B2A986
Accurately ripped (confidence 6) [8BE319B3] (AR v2)
Copy OK

Track 6

Filename C:\Users\Admin\Documents\01 EAC Rips\06. Coney Island Baby - Lou Reed.wav

Pre-gap length 0:00:00.60

Peak level 100.0 %
Extraction speed 12.4 X
Track quality 100.0 %
Test CRC A5CCB3A0
Copy CRC A5CCB3A0
Accurately ripped (confidence 6) [3E066C58] (AR v2)
Copy OK

Track 7

Filename C:\Users\Admin\Documents\01 EAC Rips\07. The Last Shot - Lou Reed.wav

Pre-gap length 0:00:00.20

Peak level 100.0 %
Extraction speed 12.7 X
Track quality 100.0 %
Test CRC 3884DB37
Copy CRC 3884DB37
Accurately ripped (confidence 6) [B121DECE] (AR v2)
Copy OK

Track 8

Filename C:\Users\Admin\Documents\01 EAC Rips\08. The Bells - Lou Reed.wav

Peak level 100.0 %
Extraction speed 13.7 X
Track quality 100.0 %
Test CRC AD8D6211
Copy CRC AD8D6211
Accurately ripped (confidence 6) [0DC22615] (AR v2)
Copy OK

Track 9

Filename C:\Users\Admin\Documents\01 EAC Rips\09. Perfect Day - Lou Reed.wav

Pre-gap length 0:00:00.55

Peak level 100.0 %
Extraction speed 14.1 X
Track quality 100.0 %
Test CRC 3C6C315D
Copy CRC 3C6C315D
Accurately ripped (confidence 6) [1B3A8E8A] (AR v2)
Copy OK

Track 10

Filename C:\Users\Admin\Documents\01 EAC Rips\10. Sally Can''t Dance - Lou Reed.wav

Pre-gap length 0:00:00.52

Peak level 100.0 %
Extraction speed 14.2 X
Track quality 100.0 %
Test CRC 8BDACDEE
Copy CRC 8BDACDEE
Accurately ripped (confidence 6) [29D08FE8] (AR v2)
Copy OK

Track 11

Filename C:\Users\Admin\Documents\01 EAC Rips\11. Satellite Of Love - Lou Reed.wav

Pre-gap length 0:00:00.30

Peak level 100.0 %
Extraction speed 14.4 X
Track quality 100.0 %
Test CRC 80B40183
Copy CRC 80B40183
Accurately ripped (confidence 6) [508E7284] (AR v2)
Copy OK

Track 12

Filename C:\Users\Admin\Documents\01 EAC Rips\12. NYC Man - Lou Reed.wav

Peak level 100.0 %
Extraction speed 15.2 X
Track quality 100.0 %
Test CRC D4D960E9
Copy CRC D4D960E9
Accurately ripped (confidence 6) [8266F25F] (AR v2)
Copy OK

Track 13

Filename C:\Users\Admin\Documents\01 EAC Rips\13. Dirty Blvd. - Lou Reed.wav

Peak level 100.0 %
Extraction speed 15.3 X
Track quality 100.0 %
Test CRC 6BC9516A
Copy CRC 6BC9516A
Accurately ripped (confidence 6) [B72DD691] (AR v2)
Copy OK

Track 14

Filename C:\Users\Admin\Documents\01 EAC Rips\14. Rock Minuet - Lou Reed.wav

Pre-gap length 0:00:00.22

Peak level 100.0 %
Extraction speed 15.0 X
Track quality 99.9 %
Test CRC 57F9BDAA
Copy CRC 57F9BDAA
Accurately ripped (confidence 6) [19B513CD] (AR v2)
Copy OK

Track 15

Filename C:\Users\Admin\Documents\01 EAC Rips\15. Pale Blue Eyes - Lou Reed.wav

Peak level 100.0 %
Extraction speed 16.8 X
Track quality 100.0 %
Test CRC 55477412
Copy CRC 55477412
Accurately ripped (confidence 6) [160CE6F9] (AR v2)
Copy OK

All tracks accurately ripped

No errors occurred

End of status report
REM GENRE "Classic Rock"
REM DATE 2003
REM DISCID DC12A010
REM COMMENT "ExactAudioCopy v1.0b3"
PERFORMER "Lou Reed"
TITLE "NYC Man - The Collection (Disc 1)"
FILE "01. Who Am I - Lou Reed.wav" WAVE
TRACK 01 AUDIO
TITLE "Who Am I"
PERFORMER "Lou Reed"
ISRC USRE10300119
INDEX 01 00:00:00
TRACK 02 AUDIO
TITLE "Sweet Jane"
PERFORMER "Lou Reed"
ISRC USAT20300370
INDEX 00 05:33:45
FILE "02. Sweet Jane - Lou Reed.wav" WAVE
INDEX 01 00:00:00
TRACK 03 AUDIO
TITLE "Rock ''N'' Roll"
PERFORMER "Lou Reed"
ISRC USAT20103137
INDEX 00 03:00:55
FILE "03. Rock ''N'' Roll - Lou Reed.wav" WAVE
INDEX 01 00:00:00
FILE "04. I''m Waiting For The Man - Lou Reed.wav" WAVE
TRACK 04 AUDIO
TITLE "I''m Waiting For The Man"
PERFORMER "Lou Reed"
ISRC USPR36702760
INDEX 01 00:00:00
FILE "05. White Light,White Heat - Lou Reed.wav" WAVE
TRACK 05 AUDIO
TITLE "White Light/White Heat"
PERFORMER "Lou Reed"
ISRC USRC10300133
INDEX 01 00:00:00
FILE "06. Street Hassle - Lou Reed.wav" WAVE
TRACK 06 AUDIO
TITLE "Street Hassle"
PERFORMER "Lou Reed"
ISRC USAR10300041
INDEX 01 00:00:00
FILE "07. Berlin - Lou Reed.wav" WAVE
TRACK 07 AUDIO
TITLE "Berlin"
PERFORMER "Lou Reed"
ISRC USRC10300140
INDEX 01 00:00:00
TRACK 08 AUDIO
TITLE "Caroline Says II"
PERFORMER "Lou Reed"
ISRC USRC10300135
INDEX 00 03:23:15
FILE "08. Caroline Says II - Lou Reed.wav" WAVE
INDEX 01 00:00:00
TRACK 09 AUDIO
TITLE "The Kids"
PERFORMER "Lou Reed"
ISRC USRC10300136
INDEX 00 04:12:10
FILE "09. The Kids - Lou Reed.wav" WAVE
INDEX 01 00:00:00
TRACK 10 AUDIO
TITLE "Walk On The Wild Side"
PERFORMER "Lou Reed"
ISRC USRC10300139
INDEX 00 07:49:10
FILE "10. Walk On The Wild Side - Lou Reed.wav" WAVE
INDEX 01 00:00:00
FILE "11. Kill Your Sons - Lou Reed.wav" WAVE
TRACK 11 AUDIO
TITLE "Kill Your Sons"
PERFORMER "Lou Reed"
ISRC ITB008300600
INDEX 01 00:00:00
FILE "12. Vicious - Lou Reed.wav" WAVE
TRACK 12 AUDIO
TITLE "Vicious"
PERFORMER "Lou Reed"
ISRC ITB008300600
INDEX 01 00:00:00
TRACK 13 AUDIO
TITLE "The Blue Mask"
PERFORMER "Lou Reed"
ISRC USRC10300137
INDEX 00 02:56:20
FILE "13. The Blue Mask - Lou Reed.wav" WAVE
INDEX 01 00:00:00
TRACK 14 AUDIO
TITLE "I''ll Be Your Mirror"
PERFORMER "Lou Reed"
ISRC USRE19800049
INDEX 00 05:01:15
FILE "14. I''ll Be Your Mirror - Lou Reed.wav" WAVE
INDEX 01 00:00:00
FILE "15. Magic And Loss - The Summation - Lou Reed.wav" WAVE
TRACK 15 AUDIO
TITLE "Magic And Loss - The Summation"
PERFORMER "Lou Reed"
ISRC USWB10000836
INDEX 01 00:00:00
TRACK 16 AUDIO
TITLE "Ecstasy"
PERFORMER "Lou Reed"
ISRC USWB10000836
INDEX 00 06:35:55
FILE "16. Ecstasy - Lou Reed.wav" WAVE
INDEX 01 00:00:00
REM GENRE Rock
REM DATE 2003
REM DISCID EF120A0F
REM COMMENT "ExactAudioCopy v1.0b3"
PERFORMER "Lou Reed"
TITLE "NYC Man - The Collection (Disc 2)"
FILE "01. I Wanna Be Black (Live) - Lou Reed.wav" WAVE
TRACK 01 AUDIO
TITLE "I Wanna Be Black (Live)"
PERFORMER "Lou Reed"
ISRC USAR10300040
INDEX 01 00:00:00
FILE "02. Temporary Thing - Lou Reed.wav" WAVE
TRACK 02 AUDIO
TITLE "Temporary Thing"
PERFORMER "Lou Reed"
ISRC USAR10300042
INDEX 01 00:00:00
TRACK 03 AUDIO
TITLE "Shooting Star"
PERFORMER "Lou Reed"
ISRC USAR10300044
INDEX 00 05:14:30
FILE "03. Shooting Star - Lou Reed.wav" WAVE
INDEX 01 00:00:00
TRACK 04 AUDIO
TITLE "Legendary Hearts"
PERFORMER "Lou Reed"
ISRC USRC10300144
INDEX 00 03:11:08
FILE "04. Legendary Hearts - Lou Reed.wav" WAVE
INDEX 01 00:00:00
TRACK 05 AUDIO
TITLE "Heroin (Live)"
PERFORMER "Lou Reed"
ISRC ITB008300606
INDEX 00 03:04:63
FILE "05. Heroin (Live) - Lou Reed.wav" WAVE
INDEX 01 00:00:00
TRACK 06 AUDIO
TITLE "Coney Island Baby"
PERFORMER "Lou Reed"
ISRC USRC10300143
INDEX 00 08:21:22
FILE "06. Coney Island Baby - Lou Reed.wav" WAVE
INDEX 01 00:00:00
TRACK 07 AUDIO
TITLE "The Last Shot"
PERFORMER "Lou Reed"
ISRC USRC19205642
INDEX 00 06:36:03
FILE "07. The Last Shot - Lou Reed.wav" WAVE
INDEX 01 00:00:00
FILE "08. The Bells - Lou Reed.wav" WAVE
TRACK 08 AUDIO
TITLE "The Bells"
PERFORMER "Lou Reed"
ISRC USRC19205642
INDEX 01 00:00:00
TRACK 09 AUDIO
TITLE "Perfect Day"
PERFORMER "Lou Reed"
ISRC USRC10300146
INDEX 00 09:19:67
FILE "09. Perfect Day - Lou Reed.wav" WAVE
INDEX 01 00:00:00
TRACK 10 AUDIO
TITLE "Sally Can''t Dance"
PERFORMER "Lou Reed"
ISRC USRC10300141
INDEX 00 03:43:18
FILE "10. Sally Can''t Dance - Lou Reed.wav" WAVE
INDEX 01 00:00:00
TRACK 11 AUDIO
TITLE "Satellite Of Love"
PERFORMER "Lou Reed"
ISRC USRC10300145
INDEX 00 02:54:53
FILE "11. Satellite Of Love - Lou Reed.wav" WAVE
INDEX 01 00:00:00
FILE "12. NYC Man - Lou Reed.wav" WAVE
TRACK 12 AUDIO
TITLE "NYC Man"
PERFORMER "Lou Reed"
ISRC USRC10300145
INDEX 01 00:00:00
FILE "13. Dirty Blvd. - Lou Reed.wav" WAVE
TRACK 13 AUDIO
TITLE "Dirty Blvd."
PERFORMER "Lou Reed"
ISRC USWB19500002
INDEX 01 00:00:00
TRACK 14 AUDIO
TITLE "Rock Minuet"
PERFORMER "Lou Reed"
ISRC USRE19901420
INDEX 00 03:30:30
FILE "14. Rock Minuet - Lou Reed.wav" WAVE
INDEX 01 00:00:00
FILE "15. Pale Blue Eyes - Lou Reed.wav" WAVE
TRACK 15 AUDIO
TITLE "Pale Blue Eyes"
PERFORMER "Lou Reed"
ISRC USPR36905204
INDEX 01 00:00:00


Трекер:  [ 22-Окт-2012 15:43 ]

  

Скачать .torrent

Размер .torrent файла 22 KB


Размер: 955 MB
Хэш (hash) релиза: 124d3ecee6e47be71abede1e6bdc7fe67fcf730b

Еще никто не оставлял запись к записи скачать торрент Lou Reed - NYC Man: The Collection . Будь первым!

!Обратная связь