Скачать через торрент Калина красная Фильм бесплатно в хорошем качестве torrent

Скачивайте на UnionPeer.org фильмы через торрент без регистрации. Новинки кино в хорошем качестве через торрент. На UnionPeer.org можно скачать через торрент фильмы 2014 и 2015 годов. Самые новые фильмы.

Скачать торрент Калина красная бесплатно через .torrent фильм мультфильм сериал

Если у вас наблюдаются проблемы со скриншотами, переходом по ссылками, скачиванием торрентов - проблемы в блокировщике рекламы AdBlock. #хорошегоДня!


Статистика раздачи
Размер:  481 MB   |    Зарегистрирован:  4 года 9 месяцев   |    .torrent скачан:  41 раз   |   
Раздают:  1  
   
Загрузка...
 
Автор Сообщение

Galfimbul

avatar Galfimbul


«Калина красная»

Год выпуска: 1973 г.
Страна: СССР
Жанр: драма
Продолжительность: 01:42:00
Перевод: Не требуется
Режиссер: Василий Шукшин
В ролях: Василий Шукшин, Лидия Федосеева-Шукшина, Иван Рыжов, Мария Скворцова, Алексей Ванин, Мария Виноградова, Офимия Быстрова, Лев Дуров, Николай Граббе, Георгий Бурков

Описание:
История о том, как человек, выстроивши сам себе лабиринт, долго и звучно может искать из него выход. Василий Шукшин рисует яркие картинки сельской, городской и просто неприкаянной жизни.

Качество видео: DVDRip
Формат: MP4
Видео кодек: H.264
Аудио кодек: AAC
Видео: x264, 368х272, 25fps, ~574kbps
Аудио: aac-lc, 2ch, ~85kbps, 48kHz
General
Format : MPEG-4
Format profile : Sony PSP
Codec ID : MSNV
File size : 481 MiB
Duration : 1h 42mn
Overall bit rate mode : Variable
Overall bit rate : 659 Kbps
Encoded date : UTC 2012-09-21 12:10:23
Tagged date : UTC 2012-09-21 12:10:23

Video
ID : 1
Format : AVC
Format/Info : Advanced Video Codec
Format profile : <a href="mailto:Main@L3.0" class="postLink">Main@L3.0</a>
Format settings, CABAC : Yes
Format settings, ReFrames : 3 frames
Codec ID : avc1
Codec ID/Info : Advanced Video Coding
Duration : 1h 42mn
Bit rate : 574 Kbps
Maximum bit rate : 3 794 Kbps
Width : 368 pixels
Height : 272 pixels
Display aspect ratio : 4:3
Frame rate mode : Constant
Frame rate : 25.000 fps
Color space : YUV
Chroma subsampling : 4:2:0
Bit depth : 8 bits
Scan type : Progressive
Bits/(Pixel*Frame) : 0.229
Stream size : 419 MiB (87%)
Writing library : x264 core 128 r2216 198a7ea
Encoding settings : cabac=1 / ref=3 / deblock=1:0:0 / analyse=0x1:0x111 / me=umh / subme=10 / psy=1 / psy_rd=1.00:0.00 / mixed_ref=1 / me_range=24 / chroma_me=1 / trellis=2 / 8x8dct=0 / cqm=0 / deadzone=21,11 / fast_pskip=0 / chroma_qp_offset=-2 / threads=6 / lookahead_threads=1 / sliced_threads=0 / nr=0 / decimate=1 / interlaced=0 / bluray_compat=0 / constrained_intra=0 / bframes=16 / b_pyramid=0 / b_adapt=0 / b_bias=0 / direct=3 / weightb=1 / open_gop=0 / weightp=0 / keyint=250 / keyint_min=25 / scenecut=40 / intra_refresh=0 / rc_lookahead=65 / rc=crf / mbtree=1 / crf=20.0 / qcomp=0.60 / qpmin=10 / qpmax=51 / qpstep=4 / vbv_maxrate=10000 / vbv_bufsize=10000 / crf_max=0.0 / nal_hrd=none / ip_ratio=1.40 / aq=1:1.00
Encoded date : UTC 2012-09-21 11:03:45
Tagged date : UTC 2012-09-21 12:12:30

Audio
ID : 2
Format : AAC
Format/Info : Advanced Audio Codec
Format profile : LC
Codec ID : 40
Duration : 1h 42mn
Bit rate mode : Variable
Bit rate : 82.3 Kbps
Maximum bit rate : 114 Kbps
Channel(s) : 2 channels
Channel positions : Front: L R
Sampling rate : 48.0 KHz
Compression mode : Lossy
Delay relative to video : -35ms
Stream size : 60.1 MiB (12%)
Language : Russian
Encoded date : UTC 2012-09-21 12:12:15
Tagged date : UTC 2012-09-21 12:12:30


Трекер:  [ 20-Окт-2012 14:29 ]

  

Скачать .torrent

Размер .torrent файла 19 KB


Размер: 481 MB
Хэш (hash) релиза: 968abc655a70f0869107957b728ab67d69f828f3
Подписка на обновления:

Торренты, похожие на Калина красная скачать торрент

Форум Название Автор Размер S L Добавлен
Российские фильмы до 2016 ·· Калина красная (Василий Шукшин) [1973, Драма, DVDRip-AVC] L 22491207972.09 GB 0 0 1336539780

08:03

9-Май-12

Еще никто не оставлял запись к записи скачать торрент Калина красная . Будь первым!

!Обратная связь