torrent

UnionPeer.org . . UnionPeer.org 2014 2015 . .

.torrent

, , - AdBlock. #!


850 MB   |    :  4 10    |    .torrent :  46    |   
1  
   
...
 

Galfimbul

avatar Galfimbul


/ / / / Spawn
/ Director''s Cut
: Spawn
: 1997 .
:
: , ,
: 01:38:38
:

( ) -
( )
( ) ( -)
( )

C:
: . . / Mark A.Z. Dippe
: (Al Simmons, Spawn), (Clown, Violator), (Jason Wynn), (Wanda Blake), (Cogliostro), .. (Terry Fitzgerald), (Jessica Priest), (Zack), (Cyan), (Glen, Zack''s Dad), (The Devil Malebolgia, ), (XNN Reporter)
: . , . , , , . , , , -, ...
, , , . . . , , , , , , . , "", () , . , .
: BDRip
: MP4
: H.264
: AAC
: 480x272 (16:9), 23.976 fps, x264 ~680 kbps avg, 0.217 bit/pixel
1: AAC-LC CBR 2 channels, 48.0 KHz ~128 Kbps ( ) -
2: AAC-LC CBR 2 channels, 48.0 KHz ~128 Kbps ( )
3: AAC-LC CBR 2 channels, 48.0 KHz ~128 Kbps ( )
4: AAC-LC CBR 2 channels, 48.0 KHz ~128 Kbps ( )
General
Complete name : F:\\PSP\Fantasy\Spawn (1997) MVO\Spawn (1997) MVO.mp4
Format : MPEG-4
Format profile : Base Media
Codec ID : isom
File size : 850 MiB
Duration : 1h 38mn
Overall bit rate : 1 205 Kbps
Writing application : XviD4PSP 6.0 / 54.14.100

Video
ID : 1
Format : AVC
Format/Info : Advanced Video Codec
Format profile : <a href="mailto:Main@L3.0" class="postLink">Main@L3.0</a>
Format settings, CABAC : Yes
Format settings, ReFrames : 3 frames
Codec ID : avc1
Codec ID/Info : Advanced Video Coding
Duration : 1h 38mn
Bit rate : 680 Kbps
Width : 480 pixels
Height : 272 pixels
Display aspect ratio : 16:9
Frame rate mode : Constant
Frame rate : 23.976 fps
Color space : YUV
Chroma subsampling : 4:2:0
Bit depth : 8 bits
Scan type : Progressive
Bits/(Pixel*Frame) : 0.217
Stream size : 479 MiB (56%)
Writing library : x264 core 125 r2200 999b753
Encoding settings : cabac=1 / ref=3 / deblock=0:0:0 / analyse=0x1:0x131 / me=tesa / subme=10 / psy=1 / psy_rd=1.00:0.20 / mixed_ref=1 / me_range=32 / chroma_me=1 / trellis=2 / 8x8dct=0 / cqm=0 / deadzone=21,11 / fast_pskip=0 / chroma_qp_offset=-3 / threads=3 / lookahead_threads=1 / sliced_threads=0 / nr=0 / decimate=0 / interlaced=0 / bluray_compat=0 / constrained_intra=0 / bframes=3 / b_pyramid=0 / b_adapt=2 / b_bias=0 / direct=3 / weightb=1 / open_gop=0 / weightp=2 / keyint=250 / keyint_min=23 / scenecut=40 / intra_refresh=0 / rc=2pass / mbtree=0 / bitrate=680 / ratetol=1.0 / qcomp=0.60 / qpmin=0 / qpmax=69 / qpstep=4 / cplxblur=20.0 / qblur=0.5 / ip_ratio=1.40 / pb_ratio=1.30 / aq=1:1.00

Audio #1
ID : 2
Format : AAC
Format/Info : Advanced Audio Codec
Format profile : LC
Codec ID : 40
Duration : 1h 38mn
Bit rate mode : Constant
Bit rate : 128 Kbps
Channel(s) : 2 channels
Channel positions : Front: L R
Sampling rate : 48.0 KHz
Compression mode : Lossy
Delay relative to video : -2s 2ms
Stream size : 90.1 MiB (11%)

Audio #2
ID : 3
Format : AAC
Format/Info : Advanced Audio Codec
Format profile : LC
Codec ID : 40
Duration : 1h 38mn
Bit rate mode : Constant
Bit rate : 128 Kbps
Channel(s) : 2 channels
Channel positions : Front: L R
Sampling rate : 48.0 KHz
Compression mode : Lossy
Delay relative to video : -2s 2ms
Stream size : 90.1 MiB (11%)

Audio #3
ID : 4
Format : AAC
Format/Info : Advanced Audio Codec
Format profile : LC
Codec ID : 40
Duration : 1h 38mn
Bit rate mode : Constant
Bit rate : 128 Kbps
Channel(s) : 2 channels
Channel positions : Front: L R
Sampling rate : 48.0 KHz
Compression mode : Lossy
Delay relative to video : -2s 2ms
Stream size : 90.2 MiB (11%)

Audio #4
ID : 5
Format : AAC
Format/Info : Advanced Audio Codec
Format profile : LC
Codec ID : 40
Duration : 1h 38mn
Bit rate mode : Constant
Bit rate : 128 Kbps
Channel(s) : 2 channels
Channel positions : Front: L R
Sampling rate : 48.0 KHz
Compression mode : Lossy
Delay relative to video : -2s 2ms
Stream size : 90.1 MiB (11%)
x264.exe: --pass 2 --bitrate 680 --preset medium --level 3.0 --no-deblock --merange 32 --direct auto --b-adapt 2 --b-pyramid none --trellis 2 --no-fast-pskip --no-dct-decimate --psy-rd 1.00:0.20 --partitions p8x8,b8x8,i4x4,p4x4 --no-8x8dct --subme 10 --me tesa --no-mbtree --sar 1:1 --stats "F:\Spawn.log" --output "F:\Spawn.mp4" "D:\Temp\0089.avs"

avs [info]: 480x272p 1:1 @ 24000/1001 fps (cfr)
x264 [info]: using SAR=1/1
x264 [info]: using cpu capabilities: MMX2 SSE2Fast SSSE3 Cache64
x264 [info]: profile Main, level 3.0

x264 [info]: frame I:1811 Avg QP:18.32 size: 18235
x264 [info]: frame P:57002 Avg QP:22.46 size: 5680
x264 [info]: frame B:82966 Avg QP:24.86 size: 1759
x264 [info]: consecutive B-frames: 6.4% 32.2% 43.3% 18.1%
x264 [info]: mb I I16..4: 22.0% 0.0% 78.0%
x264 [info]: mb P I16..4: 4.5% 0.0% 7.8% P16..4: 41.1% 23.1% 16.2% 2.1% 0.5% skip: 4.9%
x264 [info]: mb B I16..4: 0.9% 0.0% 1.0% B16..8: 35.8% 11.7% 3.7% direct: 6.1% skip:40.9% L0:36.5% L1:44.1% BI:19.4%
x264 [info]: direct mvs spatial:79.4% temporal:20.6%
x264 [info]: coded y,uvDC,uvAC intra: 70.6% 86.9% 72.6% inter: 25.6% 31.4% 18.6%
x264 [info]: i16 v,h,dc,p: 44% 14% 12% 31%
x264 [info]: i4 v,h,dc,ddl,ddr,vr,hd,vl,hu: 9% 5% 6% 10% 15% 14% 14% 12% 16%
x264 [info]: i8c dc,h,v,p: 44% 19% 19% 18%
x264 [info]: Weighted P-Frames: Y:21.5% UV:14.5%
x264 [info]: ref P L0: 60.9% 13.8% 16.0% 7.7% 1.7%
x264 [info]: ref B L0: 83.5% 16.5%
x264 [info]: kb/s:680.13

x264 [total]: encoded 141779 frames, 5.81 fps, 680.13 kb/s


 ·  , , FAQ-
:  [ 20--2012 14:26 ]

  

.torrent

.torrent 17 KB


: 850 MB
(hash) : c28eac7062290e5b2d580893c1f320d298d2294c
:
··
...

. !

!