Скачать через торрент музыку Atomic Rooster - Rebel With A Clause бесплатно без регистрации torrent

Если у вас наблюдаются проблемы со скриншотами, переходом по ссылками, скачиванием торрентов - проблемы в блокировщике рекламы AdBlock. #хорошегоДня!


Статистика раздачи
Размер:  856 MB   |    Зарегистрирован:  4 года 10 месяцев   |    .torrent скачан:  11 раз   |   
Раздают:  1  
   
Загрузка...
 
Автор Сообщение

_N_

avatar _N_


Atomic Rooster / Rebel With A Clause (2CD)
Жанр: Progressive Rock
Год издания: 2005
Издатель (лейбл): Membran Music Ltd.
Номер по каталогу: 223119-311
Страна: England
Аудиокодек: FLAC (*.flac)
Тип рипа: image+.cue
Битрейт аудио: lossless
Продолжительность: CD I - 75:50; CD II - 52:13
Источник (релизер): Thunder
Наличие сканов в содержимом раздачи: да
01. Sleeping for Years [05:27]
02. Seven Streets [06:42]
03. I Can't Take No More [03:32]
04. Taken You Over [04:50]
05. Lost in Space [05:53]
06. Play It Again [03:11]
07. Devil's Answer (live) [04:10]
08. Rebel with a Clause [02:57]
09. Night Living [03:38]
10. Death Walks Behind You [07:20]
11. It's So Unkind [04:06]
12. When You Go to Bed [03:43]
13. Head in the Sky [05:39]
14. Break the Ice [04:59]
15. Play the Game [04:46]
16. Tomorrow Night (live) [04:50]
Exact Audio Copy V1.0 beta 1 from 15. November 2010

EAC extraction logfile from 15. September 2012, 10:57

Atomic Rooster / The First 10 Explosive Years

Used drive : HL-DT-STDVDRAM GH20NS10 Adapter: 0 ID: 1

Read mode : SecureUtilize accurate stream : YesDefeat audio cache : YesMake use of C2 pointers : No

Read offset correction : 667Overread into Lead-In and Lead-Out : NoFill up missing offset samples with silence : YesDelete leading and trailing silent blocks : NoNull samples used in CRC calculations : NoUsed interface : Installed external ASPI interface

Used output format : User Defined EncoderSelected bitrate : 768 kBit/sQuality : HighAdd ID3 tag : NoCommand line compressor : C:\Program Files\Exact Audio Copy\FLAC\FLAC.EXEAdditional command line options : -6 -V -T "ARTIST=%a" -T "TITLE=%t" -T "ALBUM=%g" -T "DATE=%y" -T "TRACKNUMBER=%n" -T "GENRE=%m" -T "COMMENT=%e" %j--picture="%i"%j %s -o %d

TOC of the extracted CD

Track | Start | Length | Start sector | End sector --------------------------------------------------------- 1 | 0:00.00 | 5:27.24 | 0 | 24548 2 | 5:27.24 | 6:42.38 | 24549 | 54736 3 | 12:09.62 | 3:32.65 | 54737 | 70701 4 | 15:42.52 | 4:50.23 | 70702 | 92474 5 | 20:33.00 | 5:52.72 | 92475 | 118946 6 | 26:25.72 | 3:11.55 | 118947 | 133326 7 | 29:37.52 | 4:10.32 | 133327 | 152108 8 | 33:48.09 | 2:57.57 | 152109 | 165440 9 | 36:45.66 | 3:38.10 | 165441 | 181800 10 | 40:24.01 | 7:20.21 | 181801 | 214821 11 | 47:44.22 | 4:06.46 | 214822 | 233317 12 | 51:50.68 | 3:43.34 | 233318 | 250076 13 | 55:34.27 | 5:38.73 | 250077 | 275499 14 | 61:13.25 | 4:59.01 | 275500 | 297925 15 | 66:12.26 | 4:46.34 | 297926 | 319409 16 | 70:58.60 | 4:50.04 | 319410 | 341163

Range status and errors

Selected range

Filename H:\123\Atomic Rooster - The First 10 Explosive Years.wav

Peak level 100.0 % Extraction speed 0.1 X Range quality 100.0 % Copy CRC 3657B918 Copy OK

No errors occurred

AccurateRip summary

Track 1 accurately ripped (confidence 2) [88B40CA4]Track 2 accurately ripped (confidence 2) [0517B983]Track 3 accurately ripped (confidence 2) [4D7127DE]Track 4 accurately ripped (confidence 2) [576C9449]Track 5 accurately ripped (confidence 2) [BE2F75CC]Track 6 accurately ripped (confidence 2) [F00E8322]Track 7 accurately ripped (confidence 2) [BA7806B7]Track 8 accurately ripped (confidence 2) [AB94070E]Track 9 accurately ripped (confidence 2) [C56858DC]Track 10 accurately ripped (confidence 2) [9588C70B]Track 11 accurately ripped (confidence 2) [E915B689]Track 12 accurately ripped (confidence 2) [C0E7BA22]Track 13 accurately ripped (confidence 2) [B952539D]Track 14 accurately ripped (confidence 2) [216FD655]Track 15 accurately ripped (confidence 2) [B1A047ED]Track 16 accurately ripped (confidence 2) [B45641E1]

All tracks accurately ripped

End of status report
REM GENRE "Progressive Rock"REM DATE 1999REM DISCID E611C410REM COMMENT "ExactAudioCopy v1.0b1"PERFORMER "Atomic Rooster"TITLE "The First 10 Explosive Years"FILE "Atomic Rooster - The First 10 Explosive Years.flac" WAVE TRACK 01 AUDIO TITLE "Sleeping for Years" PERFORMER "Atomic Rooster" INDEX 01 00:00:00 TRACK 02 AUDIO TITLE "Seven Streets" PERFORMER "Atomic Rooster" INDEX 00 05:25:24 INDEX 01 05:27:24 TRACK 03 AUDIO TITLE "I Can't Take No More" PERFORMER "Atomic Rooster" INDEX 00 12:07:62 INDEX 01 12:09:62 TRACK 04 AUDIO TITLE "Taken You Over" PERFORMER "Atomic Rooster" INDEX 00 15:40:52 INDEX 01 15:42:52 TRACK 05 AUDIO TITLE "Lost in Space" PERFORMER "Atomic Rooster" INDEX 00 20:31:00 INDEX 01 20:33:00 TRACK 06 AUDIO TITLE "Play It Again" PERFORMER "Atomic Rooster" INDEX 00 26:23:72 INDEX 01 26:25:72 TRACK 07 AUDIO TITLE "Devil's Answer (live)" PERFORMER "Atomic Rooster" INDEX 00 29:35:52 INDEX 01 29:37:52 TRACK 08 AUDIO TITLE "Rebel with a Clause" PERFORMER "Atomic Rooster" INDEX 00 33:46:09 INDEX 01 33:48:09 TRACK 09 AUDIO TITLE "Night Living" PERFORMER "Atomic Rooster" INDEX 00 36:43:66 INDEX 01 36:45:66 TRACK 10 AUDIO TITLE "Death Walks Behind You" PERFORMER "Atomic Rooster" INDEX 00 40:22:01 INDEX 01 40:24:01 TRACK 11 AUDIO TITLE "It's So Unkind" PERFORMER "Atomic Rooster" INDEX 00 47:42:22 INDEX 01 47:44:22 TRACK 12 AUDIO TITLE "When You Go to Bed" PERFORMER "Atomic Rooster" INDEX 00 51:48:68 INDEX 01 51:50:68 TRACK 13 AUDIO TITLE "Head in the Sky" PERFORMER "Atomic Rooster" INDEX 00 55:32:27 INDEX 01 55:34:27 TRACK 14 AUDIO TITLE "Break the Ice" PERFORMER "Atomic Rooster" INDEX 00 61:11:25 INDEX 01 61:13:25 TRACK 15 AUDIO TITLE "Play the Game" PERFORMER "Atomic Rooster" INDEX 00 66:10:26 INDEX 01 66:12:26 TRACK 16 AUDIO TITLE "Tomorrow Night (live)" PERFORMER "Atomic Rooster" INDEX 00 70:56:60 INDEX 01 70:58:60
01. Hold Your Fire [04:50]
02. Headline News [05:17]
03. Taking A Chance [03:10]
04. Metal Minds [04:24]
05. Land of Freedom [03:49]
06. Machine [05:26]
07. Dance of Death [04:30]
08. Carnival [04:36]
09. Time [06:32]
10. Future Shock [04:25]
11. Watch Out - Reaching Out [05:09]
Exact Audio Copy V0.99 prebeta 5 from 4. May 2009

EAC extraction logfile from 15. September 2012, 10:23

Atomic Rooster / Headline News

Used drive : Optiarc DVD RW AD-7260S Adapter: 0 ID: 2

Read mode : SecureUtilize accurate stream : YesDefeat audio cache : YesMake use of C2 pointers : No

Read offset correction : 48Overread into Lead-In and Lead-Out : NoFill up missing offset samples with silence : YesDelete leading and trailing silent blocks : NoNull samples used in CRC calculations : NoUsed interface : Installed external ASPI interface

Used output format : User Defined EncoderSelected bitrate : 768 kBit/sQuality : HighAdd ID3 tag : NoCommand line compressor : C:\Program Files\Exact Audio Copy z\Exact Audio Copy\FLAC\FLAC.EXEAdditional command line options : -6 -V -T "ARTIST=%a" -T "TITLE=%t" -T "ALBUM=%g" -T "DATE=%y" -T "TRACKNUMBER=%n" -T "GENRE=%m" -T "COMMENT=%e" %s -o %d

TOC of the extracted CD

Track | Start | Length | Start sector | End sector --------------------------------------------------------- 1 | 0:00.00 | 4:50.64 | 0 | 21813 2 | 4:50.64 | 5:17.61 | 21814 | 45649 3 | 10:08.50 | 3:10.31 | 45650 | 59930 4 | 13:19.06 | 4:24.18 | 59931 | 79748 5 | 17:43.24 | 3:49.17 | 79749 | 96940 6 | 21:32.41 | 5:26.22 | 96941 | 121412 7 | 26:58.63 | 4:30.39 | 121413 | 141701 8 | 31:29.27 | 4:36.24 | 141702 | 162425 9 | 36:05.51 | 6:32.21 | 162426 | 191846 10 | 42:37.72 | 4:25.28 | 191847 | 211749 11 | 47:03.25 | 5:09.53 | 211750 | 234977

Range status and errors

Selected range

Filename H:\ 123\Atomic Rooster - Headline News.wav

Peak level 100.0 % Range quality 99.9 % Copy CRC 7E2497EC Copy OK

No errors occurred

AccurateRip summary

Track 1 accurately ripped (confidence 3) [E55CC024]Track 2 accurately ripped (confidence 3) [9DD64410]Track 3 accurately ripped (confidence 3) [2AFD8B09]Track 4 accurately ripped (confidence 3) [D3F977C9]Track 5 accurately ripped (confidence 3) [BACAB4D3]Track 6 accurately ripped (confidence 3) [A1FB35AB]Track 7 accurately ripped (confidence 3) [6041DFF1]Track 8 accurately ripped (confidence 3) [BD113ADC]Track 9 accurately ripped (confidence 3) [1CC62457]Track 10 accurately ripped (confidence 3) [A2D1356F]Track 11 accurately ripped (confidence 3) [4F1EBCC5]

All tracks accurately ripped

End of status report
REM GENRE "Progressive Rock"REM DATE 1999REM DISCID E611C410REM COMMENT "ExactAudioCopy v1.0b1"PERFORMER "Atomic Rooster"TITLE "The First 10 Explosive Years"FILE "Atomic Rooster - The First 10 Explosive Years.flac" WAVE TRACK 01 AUDIO TITLE "Sleeping for Years" PERFORMER "Atomic Rooster" INDEX 01 00:00:00 TRACK 02 AUDIO TITLE "Seven Streets" PERFORMER "Atomic Rooster" INDEX 00 05:25:24 INDEX 01 05:27:24 TRACK 03 AUDIO TITLE "I Can't Take No More" PERFORMER "Atomic Rooster" INDEX 00 12:07:62 INDEX 01 12:09:62 TRACK 04 AUDIO TITLE "Taken You Over" PERFORMER "Atomic Rooster" INDEX 00 15:40:52 INDEX 01 15:42:52 TRACK 05 AUDIO TITLE "Lost in Space" PERFORMER "Atomic Rooster" INDEX 00 20:31:00 INDEX 01 20:33:00 TRACK 06 AUDIO TITLE "Play It Again" PERFORMER "Atomic Rooster" INDEX 00 26:23:72 INDEX 01 26:25:72 TRACK 07 AUDIO TITLE "Devil's Answer (live)" PERFORMER "Atomic Rooster" INDEX 00 29:35:52 INDEX 01 29:37:52 TRACK 08 AUDIO TITLE "Rebel with a Clause" PERFORMER "Atomic Rooster" INDEX 00 33:46:09 INDEX 01 33:48:09 TRACK 09 AUDIO TITLE "Night Living" PERFORMER "Atomic Rooster" INDEX 00 36:43:66 INDEX 01 36:45:66 TRACK 10 AUDIO TITLE "Death Walks Behind You" PERFORMER "Atomic Rooster" INDEX 00 40:22:01 INDEX 01 40:24:01 TRACK 11 AUDIO TITLE "It's So Unkind" PERFORMER "Atomic Rooster" INDEX 00 47:42:22 INDEX 01 47:44:22 TRACK 12 AUDIO TITLE "When You Go to Bed" PERFORMER "Atomic Rooster" INDEX 00 51:48:68 INDEX 01 51:50:68 TRACK 13 AUDIO TITLE "Head in the Sky" PERFORMER "Atomic Rooster" INDEX 00 55:32:27 INDEX 01 55:34:27 TRACK 14 AUDIO TITLE "Break the Ice" PERFORMER "Atomic Rooster" INDEX 00 61:11:25 INDEX 01 61:13:25 TRACK 15 AUDIO TITLE "Play the Game" PERFORMER "Atomic Rooster" INDEX 00 66:10:26 INDEX 01 66:12:26 TRACK 16 AUDIO TITLE "Tomorrow Night (live)" PERFORMER "Atomic Rooster" INDEX 00 70:56:60 INDEX 01 70:58:60
Atomic Rooster – основатели хэви-прог,"…Black Sabbath для интеллектуалов", на разогреве у которых играли….Deep Purple, "трамплин" для Карла Палмера(Carl Palmer) - Emerson, Lake & Palmer.
Двойной ремастер. На первый диск вошёл сборник 1999 года The First 10 Explosive Years, на втором диске альбом 1983 года Headline News с двумя бонус треками.
Vincent Crane: Hammond organ, piano, Prophet 5, Minimoog, Clavinet, percussion, bass guitar, vocals
Paul Hammond: drums, percussion
Bernie Torme: guitars
David Gilmour: guitars
John Mizarolli: guitars
Jon Field: percussion
Jean Crane and Tareena Craze: backing vocals


Трекер:  [ 19-Окт-2012 14:31 ]

  

Скачать .torrent

Размер .torrent файла 34 KB


Размер: 856 MB
Хэш (hash) релиза: ddf09216730613049f735037efd7ddcc16eb766b

Торренты, похожие на Atomic Rooster - Rebel With A Clause скачать торрент

Форум Название Автор Размер S L Добавлен
Зарубежный Rock ·· (Progressive Rock) Atomic Rooster - Rebel With A Clause (2 CD) - 2005, MP3, 320 kbps _N_ 307439174293 MB 0 0 1350796680

08:18

21-Окт-12

Еще никто не оставлял запись к записи скачать торрент Atomic Rooster - Rebel With A Clause . Будь первым!

!Обратная связь