Скачать через торрент музыку THE CAST - HEAVY - 1995, FLAC бесплатно без регистрации torrent

Если у вас наблюдаются проблемы со скриншотами, переходом по ссылками, скачиванием торрентов - проблемы в блокировщике рекламы AdBlock. #хорошегоДня!


Статистика раздачи
Размер:  351 MB   |    Зарегистрирован:  5 лет   |    .torrent скачан:  6 раз   |   
Раздают:  1  
   
Загрузка...
 
Автор Сообщение

_N_

avatar _N_


THE CAST / HEAVY

Жанр: ROCK
Страна-производитель диска: CANADA
Год издания: 1995
Издатель (лейбл): DANCE PLANT RECORDS
Номер по каталогу: QCD-2125
Аудиокодек: FLAC (*.flac)
Тип рипа: image+.cue
Битрейт аудио: lossless
Продолжительность: 46:48
Источник (релизер): disk
Наличие сканов в содержимом раздачи: да
Треклист:
1.War Machine
2.Urban Man
3.Tainted Reputation
4.Circle'n Circle'n
5.Will It Go Away
6.Humble
7.Dumb Fuck
8.Humma Humma
9.Long Neck Bottle
10.Not a Love Song
Exact Audio Copy V0.99 prebeta 5 from 4. May 2009

Отчёт EAC об извлечении, выполненном 16. октября 2012, 18:36

The CAST / Heavy

Дисковод: TSSTcorpCDDVDW SH-S202J Adapter: 1 ID: 0

Режим чтения : ДостоверностьИспользование точного потока : ДаОтключение кэша аудио : ДаИспользование указателей C2 : Нет

Коррекция смещения при чтении : 6Способность читать области Lead-in и Lead-out : НетЗаполнение пропущенных сэмплов тишиной : ДаУдаление блоков с тишиной в начале и конце : НетПри вычислениях CRC использовались нулевые сэмплы : ДаИнтерфейс : Установленный внешний ASPI-интерфейс

Выходной формат : Пользовательский кодировщикВыбранный битрейт : 768 kBit/sКачество : ВысокийДобавление ID3-тэга : НетУтилита сжатия : C:\Program Files\Exact Audio Copy\FLAC\FLAC.EXEДополнительные параметры : -6 -V -T "ARTIST=%a" -T "TITLE=%t" -T "ALBUM=%g" -T "DATE=%y" -T "TRACKNUMBER=%n" -T "GENRE=%m" -T "COMMENT=%e" %s -o %d

TOC извлечённого CD

Трек | Старт | Длительность | Начальный сектор | Конечный сектор --------------------------------------------------------------------- 1 | 0:00.00 | 5:10.57 | 0 | 23306 2 | 5:10.57 | 4:46.40 | 23307 | 44796 3 | 9:57.22 | 5:25.40 | 44797 | 69211 4 | 15:22.62 | 4:31.60 | 69212 | 89596 5 | 19:54.47 | 5:21.20 | 89597 | 113691 6 | 25:15.67 | 4:45.58 | 113692 | 135124 7 | 30:01.50 | 3:55.15 | 135125 | 152764 8 | 33:56.65 | 3:39.10 | 152765 | 169199 9 | 37:36.00 | 4:43.70 | 169200 | 190494 10 | 42:19.70 | 4:28.42 | 190495 | 210636

Характеристики диапазона извлечения и сообщения об ошибках

Выбранный диапазон

Имя файла C:\Documents and Settings\Admin\Мои документы\Моя музыка\The CAST - Heavy.wav

Пиковый уровень 100.0 % Качество диапазона 100.0 % CRC теста CDB45B8D CRC копии CDB45B8D Копирование... OK

Ошибок не произошло

AccurateRip: сводка

Трек 1 нет в базе данныхТрек 2 нет в базе данныхТрек 3 нет в базе данныхТрек 4 нет в базе данныхТрек 5 нет в базе данныхТрек 6 нет в базе данныхТрек 7 нет в базе данныхТрек 8 нет в базе данныхТрек 9 нет в базе данныхТрек 10 нет в базе данных

Ни одного трека нет в базе AccurateRip

Конец отчёта
REM DATE 1995REM DISCID 830AF80AREM COMMENT "ExactAudioCopy v0.99pb5"PERFORMER "The CAST"TITLE "Heavy"FILE "The CAST - Heavy.flac" WAVE TRACK 01 AUDIO TITLE "War Machine" PERFORMER "The CAST" INDEX 01 00:00:00 TRACK 02 AUDIO TITLE "Urban Man" PERFORMER "The CAST" INDEX 00 05:10:29 INDEX 01 05:10:57 TRACK 03 AUDIO TITLE "Tainted Reputation" PERFORMER "The CAST" INDEX 00 09:55:34 INDEX 01 09:57:22 TRACK 04 AUDIO TITLE "Circle'n Circle'n" PERFORMER "The CAST" INDEX 00 15:22:03 INDEX 01 15:22:62 TRACK 05 AUDIO TITLE "Will It Go Away" PERFORMER "The CAST" INDEX 00 19:53:58 INDEX 01 19:54:47 TRACK 06 AUDIO TITLE "Humble" PERFORMER "The CAST" INDEX 00 25:14:20 INDEX 01 25:15:67 TRACK 07 AUDIO TITLE "Dumb Fuck" PERFORMER "The CAST" INDEX 00 30:01:24 INDEX 01 30:01:50 TRACK 08 AUDIO TITLE "Humma Humma" PERFORMER "The CAST" INDEX 00 33:56:60 INDEX 01 33:56:65 TRACK 09 AUDIO TITLE "Long Neck Bottle" PERFORMER "The CAST" INDEX 00 37:34:37 INDEX 01 37:36:00 TRACK 10 AUDIO TITLE "Not a Love Song" PERFORMER "The CAST" INDEX 00 42:16:58 INDEX 01 42:19:70


Трекер:  [ 19-Окт-2012 14:31 ]

  

Скачать .torrent

Размер .torrent файла 14 KB


Размер: 351 MB
Хэш (hash) релиза: cf508df84cba30a05f6cf0d73c702331666d8d1c

Еще никто не оставлял запись к записи скачать торрент THE CAST - HEAVY - 1995, FLAC . Будь первым!

!Обратная связь