Скачать через торрент музыку Tractor - Tractor бесплатно без регистрации torrent

Если у вас наблюдаются проблемы со скриншотами, переходом по ссылками, скачиванием торрентов - проблемы в блокировщике рекламы AdBlock. #хорошегоДня!


Статистика раздачи
Размер:  392 MB   |    Зарегистрирован:  4 года 10 месяцев   |    .torrent скачан:  20 раз   |   
Раздают:  1  
   
Загрузка...
 
Автор Сообщение

_N_

avatar _N_


Tractor / Tractor (1972)

Жанр: Psychedelic,Hard Rock
Год издания: 2009
Аудиокодек: FLAC (*.flac)
Тип рипа: image+.cue
Битрейт аудио: lossless
Продолжительность: 64:00
Источник (релизер): my disc
Наличие сканов в содержимом раздачи: да
Треклист:
01. All Ends Up [0:06:42.16]
02. Little Girl In Yellow [0:08:07.07]
03. The Watcher [0:01:57.21]
04. Ravenscroft's 13 Bar Boogie [0:03:08.73]
05. Shubunkin [0:02:57.56]
06. Hope In Favour [0:02:46.53]
07. Everytime It Happens [0:05:54.10]
08. Make The Journey [0:09:10.38]
bonus:
09. Siderial [0:05:20.43]
10. No More Lies [0:05:28.69]
11. Mr.Evolution Man [0:03:08.56]
12. Every Time It Happens [0:04:02.06]
13. The Storm [0:02:45.08]
14. The Watcher [0:02:29.69]
Exact Audio Copy V0.99 prebeta 4 from 23. January 2008

Отчёт EAC об извлечении, выполненном 15. октября 2012, 19:18

Tractor / Tractor'72

Дисковод: ASUS DRW-1814BL Adapter: 1 ID: 0

Режим чтения : ДостоверностьИспользование точного потока : ДаОтключение кэша аудио : ДаИспользование указателей C2 : Нет

Коррекция смещения при чтении : 6Способность читать области Lead-in и Lead-out : НетЗаполнение пропущенных сэмплов тишиной : ДаУдаление блоков с тишиной в начале и конце : НетПри вычислениях CRC использовались нулевые сэмплы : ДаИнтерфейс : Установленный внешний ASPI-интерфейс

Выходной формат : Пользовательский кодировщикВыбранный битрейт : 1024 kBit/sКачество : ВысокийДобавление ID3-тэга : НетУтилита сжатия : C:\Program Files\Exact Audio Copy\FLAC\FLAC.EXEДополнительные параметры : -6 -V -T "ARTIST=%a" -T "TITLE=%t" -T "ALBUM=%g" -T "DATE=%y" -T "TRACKNUMBER=%n" -T "GENRE=%m" -T "COMMENT=%e" %s -o %d

TOC извлечённого CD

Трек | Старт | Длительность | Начальный сектор | Конечный сектор --------------------------------------------------------------------- 1 | 0:00.00 | 6:42.16 | 0 | 30165 2 | 6:42.16 | 8:07.07 | 30166 | 66697 3 | 14:49.23 | 1:57.21 | 66698 | 75493 4 | 16:46.44 | 3:08.73 | 75494 | 89666 5 | 19:55.42 | 2:57.56 | 89667 | 102997 6 | 22:53.23 | 2:46.53 | 102998 | 115500 7 | 25:40.01 | 5:54.10 | 115501 | 142060 8 | 31:34.11 | 9:10.38 | 142061 | 183348 9 | 40:44.49 | 5:20.43 | 183349 | 207391 10 | 46:05.17 | 5:28.69 | 207392 | 232060 11 | 51:34.11 | 3:08.56 | 232061 | 246216 12 | 54:42.67 | 4:02.06 | 246217 | 264372 13 | 58:44.73 | 2:45.08 | 264373 | 276755 14 | 61:30.06 | 2:29.69 | 276756 | 287999

Характеристики диапазона извлечения и сообщения об ошибках

Выбранный диапазон

Имя файла D:\loSSleSS\tractor'72\Tractor - Tractor'72.wav

Пиковый уровень 97.6 % Качество диапазона 99.9 % CRC теста 6293AA27 CRC копии 6293AA27 Копирование... OK

Ошибок не произошло

AccurateRip: сводка

Трек 1 нет в базе данныхТрек 2 нет в базе данныхТрек 3 нет в базе данныхТрек 4 нет в базе данныхТрек 5 нет в базе данныхТрек 6 нет в базе данныхТрек 7 нет в базе данныхТрек 8 нет в базе данныхТрек 9 нет в базе данныхТрек 10 нет в базе данныхТрек 11 нет в базе данныхТрек 12 нет в базе данныхТрек 13 нет в базе данныхТрек 14 нет в базе данных

Ни одного трека нет в базе AccurateRip

Конец отчёта
История "Трактора" началась с бит-квартета "The Way We Live", созданного в Рочдейле в 1966 году Стивом Клэйтоном (ударные) и Джимом Милном (гитара, вокал). Вместе с ними работали вокалист Алан Бургесс и басист Майкл "Слим" Батш, но и тот и другой впоследствии куда-то исчезли (хотя Алан сохранил связи с группой и даже помогал в оформлении первого альбома). К началу 70-х оставшиеся вдвоем Джим и Стив вошли в тесный контакт с электронным кудесником Джоном Брайерли и стали продвигаться в психоделическом направлении. В домашней студии Джона парни проводили эксперименты со звуком и там же записали промо-пленку, которая помогла им выбиться в люди. Одна из копий пробника попала на лейбл Джона Пила "Dandelion Records", и буквально на следующее утро из Лондона в Рочдэйл для заключения контракта прибыл представитель этой фирмы Клайв Селвуд.Музыкантов не пришлось долго уговаривать, и вскоре они сидели в столичной студии и записывали дебютную пластинку. Сессии закончились всего за два дня, а такая скорость объяснялась тем, что "The Way We Live" не стали сочинять новых песен и перегнали на альбом практически весь демоматериал.Пластинка, названная в честь будущей жены Стива "A Candle For Judith" и поступившая в продажу в январе 1971 года, содержала весьма интересную начинку, в которой переплетались хард-рок, фолк и оформленная "под Индию" психоделика. Критики разразились восторгами, однако продажи шли вяло, и альбом долгое время не мог попасть в чарты. Несмотря на плохой покупательский спрос Пил и Селвуд сохранили энтузиазм и настояли на скорейшем продолжении работы группы. Джон приобрел для музыкантов новую аппаратуру, а также предложил сменить название коллектива на более краткое и удобоваримое. Раздумывая над этим вопросом, он выглянул из окна и увидел трактор, и с данного момента стало ясно, что "Tractor" - вполне подходящее имя для рочдейлского дуэта.Выкатив под новой маркой пробный блин в виде EP "Stoney Glory", парни взялись за вторую полнометражку. Альбом, озаглавленный просто "Tractor", содержал парочку эсид-фолковых вещей и один блюз-роковый номер, а все остальное звуковое пространство занимал утяжеленный психодел. Коммерческий успех пластинки оказался выше чему у "A Candle For Judith", и спустя месяц после релиза лонгплей "трактористов" обогнал в чартах "Radio Luxemburg" "хиповский" "Magician's Birthday".Пока "Tractor" готовились к своим первым концертам, внутренняя атмосфера в группе стала накаляться. По настоянию Милна коллектив прекратил сотрудничество с Брайерли, и место звукоинженера занял их давний соратник Бургесс. А пока музыканты занимались постройкой собственной студии "Tractor Sound" у "Dandelion Records" начались свои проблемы, и группа осталась без контракта. Тем не менее, Селвуд сохранял интерес к творчеству "трактористов", и когда они записали рэгги-сингл "Roll The Dice", он помог реализовать его через фирму Джонатана Кинга "UK Records". Вскоре после этого наступило затишье, и только в 1976-м команда, усиленная бас-гитаристом Дэйвом Эдисоном, начала давать концерты. На следующий год "Tractor" восстановили отношения с Брайерли и на его лейбле "Cargo Records" выпустили сингл "No More Rock'N'Roll", но потом дело опять заглохло.Хотя на заре 80-х вновь начались выступления и даже вышел миньон "Average Man's Hero", в следующий раз команда замолчала на 20 с лишним лет. Впрочем, за это время на свет появился ряд архивных записей, а под конец нулевых "трактористы" задумались о доработке своего третьего студийника.


Трекер:  [ 17-Окт-2012 17:59 ]

  

Скачать .torrent

Размер .torrent файла 16 KB


Размер: 392 MB
Хэш (hash) релиза: 11e4efe004eb49235c4e942ebf28d55a6e377175

Еще никто не оставлял запись к записи скачать торрент Tractor - Tractor . Будь первым!

!Обратная связь