Скачать через торрент музыку Bakers Pink бесплатно без регистрации torrent

Если у вас наблюдаются проблемы со скриншотами, переходом по ссылками, скачиванием торрентов - проблемы в блокировщике рекламы AdBlock. #хорошегоДня!


Статистика раздачи
Размер:  273 MB   |    Зарегистрирован:  4 года 10 месяцев   |    .torrent скачан:  6 раз   |   
Раздают:  1  
   
Загрузка...
 
Автор Сообщение

_N_

avatar _N_


Bakers Pink (ex-The Front) / Bakers Pink

Жанр: hard rock
Страна-производитель диска: USA
Год издания: 1993
Издатель (лейбл): Epic
Номер по каталогу: EK 48799
Страна: USA
Аудиокодек: APE (*.ape)
Тип рипа: image+.cue
Битрейт аудио: lossless
Источник (релизер): свой рипъ
Наличие сканов в содержимом раздачи: нет
Треклист:
01. The Noose, The Flesh & The Devil
02. Euphoria
03. Soul Connection
04. Untouched
05. Lonely, Lonely, Lonely
06. Watercolours
07. Burn On
08. You Ain't Gonna Love Me
09. Julianna
10. Truly, Madly, Deeply
Exact Audio Copy V0.99 prebeta 4 from 23. January 2008

EAC extraction logfile from 15. October 2012, 19:49

Bakers Pink / Bakers Pink

Used drive : PIONEER DVD-RW DVR-212 Adapter: 5 ID: 0

Read mode : SecureUtilize accurate stream : YesDefeat audio cache : YesMake use of C2 pointers : No

Read offset correction : 48Overread into Lead-In and Lead-Out : NoFill up missing offset samples with silence : YesDelete leading and trailing silent blocks : NoNull samples used in CRC calculations : YesUsed interface : Native Win32 interface for Win NT & 2000

Used output format : Internal WAV RoutinesSample format : 44.100 Hz; 16 Bit; Stereo

TOC of the extracted CD

Track | Start | Length | Start sector | End sector --------------------------------------------------------- 1 | 0:00.00 | 3:21.63 | 0 | 15137 2 | 3:21.63 | 5:06.22 | 15138 | 38109 3 | 8:28.10 | 3:44.48 | 38110 | 54957 4 | 12:12.58 | 3:13.70 | 54958 | 69502 5 | 15:26.53 | 4:59.17 | 69503 | 91944 6 | 20:25.70 | 4:56.40 | 91945 | 114184 7 | 25:22.35 | 3:31.68 | 114185 | 130077 8 | 28:54.28 | 4:38.32 | 130078 | 150959 9 | 33:32.60 | 4:58.35 | 150960 | 173344 10 | 38:31.20 | 5:16.43 | 173345 | 197087

Range status and errors

Selected range

Filename D:\temp\Bakers Pink - Bakers Pink.wav

Peak level 100.0 % Range quality 100.0 % Copy CRC 64F4F747 Copy OK

No errors occurred

AccurateRip summary

Track 1 not present in databaseTrack 2 not present in databaseTrack 3 not present in databaseTrack 4 not present in databaseTrack 5 not present in databaseTrack 6 not present in databaseTrack 7 not present in databaseTrack 8 not present in databaseTrack 9 not present in databaseTrack 10 not present in database

None of the tracks are present in the AccurateRip database

End of status report


Трекер:  [ 16-Окт-2012 20:22 ]

  

Скачать .torrent

Размер .torrent файла 22 KB


Размер: 273 MB
Хэш (hash) релиза: 5c129dbd7ba9d95af0e7f83fb2d39a052b3c28a0

Еще никто не оставлял запись к записи скачать торрент Bakers Pink . Будь первым!

!Обратная связь