Скачать через торрент БА-БАХ! BTOOOM! бесплатно Аниме Все серии на русском torrent

Если у вас наблюдаются проблемы со скриншотами, переходом по ссылками, скачиванием торрентов - проблемы в блокировщике рекламы AdBlock. #хорошегоДня!


Статистика раздачи
Размер:  712 MB   |    Зарегистрирован:  4 года 11 месяцев   |    .torrent скачан:  8 раз   |   
Раздают:  1  
   
Загрузка...
 
Автор Сообщение

_N_

avatar _N_


БА-БАХ!
BTOOOM!
Страна: Япония
Год выпуска: 2012 г.
Жанр: приключения, фантастика
Продолжительность: 12 эп, ~25 мин.
Режиссер: Ватанабэ Котоно
Студия:
Описание: Современный мир охватывает новое игровое безумие. Реальный мир перестаёт радовать людей, и они всё более явно отдают предпочтение миру компьютерных игр. И это мир из года в год приобретает всё более реальные и причудливые формы. Ведь таков прогресс и ценой за него стало человеческое сознание.
Самой популярной компьютерной игрой Японнии последних лет стала онлайн игра «BTOOOM!». Она переносит сознание своего игрока из реальности в мир, где правят, взрывы и где главная задача игроков выжить любой ценой. И помочь в борьбе с противником должны специальные разнотипные бомбы именуемые «BIM». Одним из лучших игроков этой игры заслуженно считается Сакамото Рёта. 22-летний безработный, живущий за счёт своей матери. Он люто ненавидит окружающий мир и все его проявления. Да и зачем он ему? Ведь в «BTOОOM!» он царь и Бог происходящего и там ему нет равных. Но случается то, чего не мог ожидать никто.
Разработчики игры отправляют лучших игроков на необитаемый остров, с небольшим запасом провизии, медикаментов и бомб «BIM». Теперь задача каждого из них не просто выжить, но и уложить по семь участников игры ведь таковы условия выживания на новом игровом острове «BTOОOM!»
© Oni. SHIZA Project
Качество: HDTVRip
Тип релиза: Без хардсаба
Формат видео: MP4
Наличие линковки: Нет
Видео: x264, 1280х720, 1536 kbps, 23,976 fps
Аудио: AAC, 192 kbps, 48000 Hz, 2ch [MVO] (SakaE, BalFor, Viki, Faraway, Лизавета) Сэмпл
Аудио 2: AAC, 217 kbps, 48000 Hz, 2ch (Оригинал)
Субтитры: ASS, внешние, Перевод: SakaE
ОбщееПолное имя : D:\Закачка\BTOOOM! TV [01 of 12] [RUS JAP] [1280x720 x264] [MVO].mp4Формат : MPEG-4Профиль формата : Base MediaИдентификатор кодека : isomРазмер файла : 345 МбайтПродолжительность : 24 м.Режим общего битрейта : ПеременныйОбщий поток : 1950 Кбит/секДата кодирования : UTC 2012-10-05 13:29:07Дата пометки : UTC 2012-10-05 13:29:07

ВидеоИдентификатор : 1Формат : AVCФормат/Информация : Advanced Video CodecПрофиль формата : <a href="mailto:High@L4.1Параметр" class="postLink">High@L4.1Параметр</a> CABAC формата : ДаПараметр ReFrames формата : 4 кадраИдентификатор кодека : avc1Идентификатор кодека/Информация : Advanced Video CodingПродолжительность : 24 м.Битрейт : 1536 Кбит/секМаксимальный битрейт : 8519 Кбит/секШирина : 1280 пикселейВысота : 720 пикселейСоотношение сторон : 16:9Режим частоты кадров : ПостоянныйЧастота кадров : 23,976 кадра/секЦветовое пространство : YUVСубдискретизация насыщенности : 4:2:0Битовая глубина : 8 битТип развёртки : ПрогрессивнаяБит/(Пиксели*Кадры) : 0.069Размер потока : 272 Мбайт (79%)Библиотека кодирования : x264 core 125 r2208 d9d2288Настройки программы : cabac=1 / ref=3 / deblock=1:0:0 / analyse=0x3:0x113 / me=hex / subme=7 / psy=1 / psy_rd=1.00:0.00 / mixed_ref=1 / me_range=16 / chroma_me=1 / trellis=1 / 8x8dct=1 / cqm=0 / deadzone=21,11 / fast_pskip=1 / chroma_qp_offset=-2 / threads=12 / lookahead_threads=2 / sliced_threads=0 / nr=0 / decimate=1 / interlaced=0 / bluray_compat=0 / constrained_intra=0 / bframes=3 / b_pyramid=2 / b_adapt=1 / b_bias=0 / direct=1 / weightb=1 / open_gop=0 / weightp=2 / keyint=250 / keyint_min=23 / scenecut=40 / intra_refresh=0 / rc_lookahead=40 / rc=crf / mbtree=1 / crf=20.0 / qcomp=0.60 / qpmin=0 / qpmax=69 / qpstep=4 / ip_ratio=1.40 / aq=1:1.00Дата кодирования : UTC 2012-10-04 20:06:59Дата пометки : UTC 2012-10-05 13:29:19

Аудио #1Идентификатор : 2Формат : AACФормат/Информация : Advanced Audio CodecПрофиль формата : LCИдентификатор кодека : 40Продолжительность : 24 м.Вид битрейта : ПеременныйБитрейт : 192 Кбит/секМаксимальный битрейт : 229 Кбит/секКаналы : 2 каналаРасположение каналов : Front: L RЧастота : 48,0 КГцМетод сжатия : С потерямиЗадержка видео : 83 мс.Размер потока : 33,9 Мбайт (10%)Заголовок : SHIZAЯзык : RussianДата кодирования : UTC 2012-10-05 13:29:18Дата пометки : UTC 2012-10-05 13:29:19

Аудио #2Идентификатор : 3Формат : AACФормат/Информация : Advanced Audio CodecПрофиль формата : LCИдентификатор кодека : 40Продолжительность : 24 м.Вид битрейта : ПеременныйБитрейт : 217 Кбит/секМаксимальный битрейт : 257 Кбит/секКаналы : 2 каналаРасположение каналов : Front: L RЧастота : 48,0 КГцМетод сжатия : С потерямиЗадержка видео : 83 мс.Размер потока : 38,5 Мбайт (11%)Заголовок : JAP OriginalЯзык : JapaneseДата кодирования : UTC 2012-10-05 13:29:19Дата пометки : UTC 2012-10-05 13:29:19
01. Старт!


Трекер:  [ 17-Окт-2012 15:32 ]

  

Скачать .torrent

Размер .torrent файла 15 KB


Размер: 712 MB
Хэш (hash) релиза: 18b356799b95c624edc150b50b1db3533ac35511
Подписка на обновления:

Еще никто не оставлял запись к записи скачать торрент БА-БАХ! BTOOOM! . Будь первым!

!Обратная связь