Скачать через торрент музыку The Triffids - Come Ride With Me... Wide Open Road - The Deluxe Edition бесплатно без регистрации torrent

Если у вас наблюдаются проблемы со скриншотами, переходом по ссылками, скачиванием торрентов - проблемы в блокировщике рекламы AdBlock. #хорошегоДня!


Статистика раздачи
Размер:  4.27 GB   |    Зарегистрирован:  5 лет 1 месяц   |    .torrent скачан:  19 раз   |   
Раздают:  1  
   
Загрузка...
 
Автор Сообщение

_N_

avatar _N_


The Triffids / Come Ride With Me... Wide Open Road - The Deluxe Edition [10CD Box Set]

Жанр: Alternative Rock / Indie Rock
Страна-производитель диска: UK
Год издания: 2010
Издатель (лейбл): Domino
Номер по каталогу: REWIGCD72X
Страна: UK

Аудиокодек: FLAC (*.flac)
Тип рипа: tracks+.cue
Битрейт аудио: lossless

Продолжительность: 11:23:17

Источник (релизер): What.cd (by gramsk)
Наличие сканов в содержимом раздачи: нет

Содержание издания:
CD1: Wide Open Road - The Best Of The Triffids
CD2: The Early Singles & EPs
CD3: The Early Cassettes
CD4: The Early Cassettes
CD5: Grandson Of Dungeon Tape
CD6: Live To Air On 3PBS 16th April 1984
CD7: Live At The London School Of Economics 27th October 1984
CD8: Live At Melbourne University 27th March 1988
CD9: Jack Brabham 2010 #1
CD10: Jack Brabham 2010 #2
01. Wide Open Road
02. Red Pony
03. Reverie
04. Beautiful Waste
05. Hell Of A Summer
06. Property Is Condemned
07. Raining Pleasure
08. The Seabirds
09. Lonely Stretch
10. Stolen Property
11. Kathy Knows
12. Bury Me Deep
13. A Trick Of The Light
14. Jerdacuttup Man
15. Too Hot To Move
16. Goodbye Little Boy
17. New Years Greetings
18. Save What You Can
01. Stand Up02. Farmers Never Visit Nightclub03. Reverie04. Place In The Sun05. Joan Of Arc06. This Boy07. Spanish Blue08. Twisted Brain09. Bad Timing10. Left To Rot11. Being Driven12. Snake Pit13. Beautiful Waste14. Property Is Condemned15. Bright Light Big City16. Monkey On My Back17. Field Of Glass18. You Don't Miss Your Water19. Convent Walls
Tape 101. Mark02. Martyrs03. No04. Take Me To Your LeaderTape 205. Philosophical Stroll06. What's The Difference07. Butterfly08. New Vision09. The Diplomatic Corp10. Out Of TimeTape 311. I Was A Teenage Teenager12. Sixteen Again (Short Version)13. Jeremy JoyTape 414. Cyclone15. Artist16. Human Interest17. Careless City18. Blox19. Fly To The Moon20. Little Voices21. Actress22. Adaptable23. Aim For My Heart24. Glamour Boy
Tape 501. Tuscan St Retirement Village02. My Next Door Neighbour03. Farmers Never Visit Nightclubs04. It Was A Wednesday05. I Can't Wait To See Your Gun06. Surfer Boy In Leather07. On The Street Where You Live08. In The Tropicana Lounge09. The Trumpet Of The Moon10. Pile Up11. Never Again12. Hey Mary Ann13. Nervous Side Of Town14. Southern Religious Program Pt 115. Southern Religious Program Pt 2Tape 616. Somewhere In The Shadows17. You Can Spend18. The Marrying Kind19. A Place In The Sun20. Stand Up21. Calm Down22. Reverie23. Don't You Know There's A World Going On24. No Desire25. Digging A Hole26. Terry Angeline27. Native Bride28. Providence29. Thanks For Everything30. Lanally
01. Too Hot To Move (Too Hot To Think)02. MGM03. Man Who Can04. Nothing Good Is Going To Come Of This05. (Secret Message)06. Family Name07. Madeline08. Twisted Brain09. Chew It Up10. Work For Nothing11. Happy Boy12. (Instructions)13. Dead Wind14. Cat On A Hot Tin Roof15. I'll Have It16. Spanish Blue17. You Can Keep It18. Bad Timing19. I Can't Wait To See Your Gun20. Hours At A Time21. Son Of Reverie22. Son Of Stand Up23. Red Pony24. Plaything25. Nothing Can Take Your Place26. (Interview)
01. Cahoun Surf02. This Boy03. Everybody Has To Eat04. Embedded05. Personal Things06. Mercy07. Pleasure Slide08. Monkey On My Back09. Field Of Glass10. Native Bride11. Dear Miss Lonely Hearts12. Jesus Calling13. Satisfied Mind14. Jack Frost15. Ain't No Sunshine16. Property Is Condemned
01. Lonesome Hobo02. Bright Lights Big City03. Hell Of A Summer04. My Baby Thinks She's A Train05. Jesus Calling06. Red Pony07. Beautiful Waste08. Raining Pleasure09. Property Is Condemned10. Monkey On My Back11. Field Of Glass12. I Can't Help Falling In Love With You
01. Wide Open Road02. Lonely Stretch03. Property Is Condemned04. Jerdacuttup Man05. A Trick Of The Light06. Holy Water07. Kelly's Blues08. Better Off This Way09. Bury Me Deep In Love10. Raining Pleasure11. Red Pony12. Place In The Sun13. Field Of Glass / Lonesome Hobo14. What Goes On15. How Could I Help But Love You16. Hell Of A Summer17. I Can't Help Falling In Love With You
01. Indiscreet Music02. Radioactivity03. Family Name04. Spanish Blue05. Crucifixion Speech06. Night Life07. Happy Boy08. Mother Silhouette09. Crucifixion Speech10. Once A Day11. Femme Fatale12. You're No Good13. The Dave And Ritchie Show Radio ID14. Good Morning Good Morning15. Into The Groove16. Goodbye Little Boy17. Rent18. Kelly's Blues19. Blinder By The Hour20. Just Might Fade Away21. Spinning Top Song22. A Trick Of The Light23. Too Hot To Move Too Hot To Think24. Fairytale Love
01. Comment02. Punk Rock03. Comment04. Mark05. Slow Decay06. When She Goes Down07. Embedded08. Deadwind09. Raining Pleasure10. Story Of Joseph10. Lonely Stretch (Solo Demo)12. Lonely Stretch (Rehearsal)13. Love And Affection (Fragment)14. Stolen Property (Rehearsal)15. The Seabirds (Rehearsal)16. Tarrilup Bridge17. Wide Open Road (Rehearsal)18. Personal Things19. Jerdacuttup Man20. A Trick Of The Light (Demo)21. Comment22. Shell Of The Man (Rehearsal)23. Save What You Can (Rehearsal)24. New Year's Greetings (Demo)25. New Year's Greetings (Instrumental)
Exact Audio Copy V1.0 beta 1 from 15. November 2010

EAC extraction logfile from 15. January 2011, 0:32

The Triffids / Wide Open Road - The Best Of The Triffids

Used drive : HL-DT-STDVD+-RW GSA-T11N Adapter: 1 ID: 0

Read mode : Secure
Utilize accurate stream : Yes
Defeat audio cache : Yes
Make use of C2 pointers : No

Read offset correction : 667
Overread into Lead-In and Lead-Out : No
Fill up missing offset samples with silence : Yes
Delete leading and trailing silent blocks : No
Null samples used in CRC calculations : No
Used interface : Native Win32 interface for Win NT & 2000
Gap handling : Appended to previous track

Used output format : User Defined Encoder
Selected bitrate : 1024 kBit/s
Quality : High
Add ID3 tag : No
Command line compressor : C:\Program Files\EAC\FLAC\FLAC.EXE
Additional command line options : -8 -V -T "ARTIST=%a" -T "TITLE=%t" -T "ALBUM=%g" -T "DATE=%y" -T "TRACKNUMBER=%n" -T "GENRE=%m" -T "COMMENT=%e" %j--picture="%i"%j %s -o %d

TOC of the extracted CD

Track | Start | Length | Start sector | End sector
---------------------------------------------------------
1 | 0:00.00 | 4:09.64 | 0 | 18738
2 | 4:09.64 | 4:10.72 | 18739 | 37560
3 | 8:20.61 | 3:05.16 | 37561 | 51451
4 | 11:26.02 | 3:21.66 | 51452 | 66592
5 | 14:47.68 | 4:28.60 | 66593 | 86752
6 | 19:16.53 | 2:59.51 | 86753 | 100228
7 | 22:16.29 | 2:30.40 | 100229 | 111518
8 | 24:46.69 | 3:20.74 | 111519 | 126592
9 | 28:07.68 | 5:03.29 | 126593 | 149346
10 | 33:11.22 | 6:47.68 | 149347 | 179939
11 | 39:59.15 | 4:03.31 | 179940 | 198195
12 | 44:02.46 | 4:04.70 | 198196 | 216565
13 | 48:07.41 | 3:53.24 | 216566 | 234064
14 | 52:00.65 | 4:45.19 | 234065 | 255458
15 | 56:46.09 | 4:04.26 | 255459 | 273784
16 | 60:50.35 | 3:27.37 | 273785 | 289346
17 | 64:17.72 | 5:44.49 | 289347 | 315195
18 | 70:02.46 | 4:33.48 | 315196 | 335718

Track 1

Filename S:\what.cd\The Triffids - Wide Open Road (Come Ride With Me - 10CD Deluxe Edition, FLAC)\Disc 1\01 The Triffids - Wide Open Road - The Best Of The Triffids - Wide Open Road.wav

Pre-gap length 0:00:02.00

Peak level 98.5 %
Extraction speed 3.0 X
Track quality 100.0 %
Test CRC A401CE4F
Copy CRC A401CE4F
Accurately ripped (confidence 6) [52FACBC2]
Copy OK

Track 2

Filename S:\what.cd\The Triffids - Wide Open Road (Come Ride With Me - 10CD Deluxe Edition, FLAC)\Disc 1\02 The Triffids - Wide Open Road - The Best Of The Triffids - Red Pony.wav

Pre-gap length 0:00:00.42

Peak level 93.7 %
Extraction speed 3.3 X
Track quality 100.0 %
Test CRC F0345C98
Copy CRC F0345C98
Accurately ripped (confidence 6) [E013F553]
Copy OK

Track 3

Filename S:\what.cd\The Triffids - Wide Open Road (Come Ride With Me - 10CD Deluxe Edition, FLAC)\Disc 1\03 The Triffids - Wide Open Road - The Best Of The Triffids - Reverie.wav

Pre-gap length 0:00:00.66

Peak level 82.6 %
Extraction speed 3.3 X
Track quality 100.0 %
Test CRC 53EA4EB6
Copy CRC 53EA4EB6
Accurately ripped (confidence 6) [4BB226AE]
Copy OK

Track 4

Filename S:\what.cd\The Triffids - Wide Open Road (Come Ride With Me - 10CD Deluxe Edition, FLAC)\Disc 1\04 The Triffids - Wide Open Road - The Best Of The Triffids - Beautiful Waste.wav

Pre-gap length 0:00:03.06

Peak level 85.5 %
Extraction speed 2.9 X
Track quality 99.9 %
Test CRC 76A401C7
Copy CRC 76A401C7
Accurately ripped (confidence 6) [5F783A85]
Copy OK

Track 5

Filename S:\what.cd\The Triffids - Wide Open Road (Come Ride With Me - 10CD Deluxe Edition, FLAC)\Disc 1\05 The Triffids - Wide Open Road - The Best Of The Triffids - Hell Of A Summer.wav

Pre-gap length 0:00:02.12

Peak level 94.8 %
Extraction speed 4.0 X
Track quality 100.0 %
Test CRC 6335AD20
Copy CRC 6335AD20
Accurately ripped (confidence 6) [71E3EBF7]
Copy OK

Track 6

Filename S:\what.cd\The Triffids - Wide Open Road (Come Ride With Me - 10CD Deluxe Edition, FLAC)\Disc 1\06 The Triffids - Wide Open Road - The Best Of The Triffids - Property Is Condemned.wav

Pre-gap length 0:00:00.05

Peak level 85.5 %
Extraction speed 3.9 X
Track quality 100.0 %
Test CRC EB997420
Copy CRC EB997420
Accurately ripped (confidence 6) [DE3F3A46]
Copy OK

Track 7

Filename S:\what.cd\The Triffids - Wide Open Road (Come Ride With Me - 10CD Deluxe Edition, FLAC)\Disc 1\07 The Triffids - Wide Open Road - The Best Of The Triffids - Raining Pleasure.wav

Pre-gap length 0:00:02.00

Peak level 91.1 %
Extraction speed 4.0 X
Track quality 100.0 %
Test CRC 7E80C393
Copy CRC 7E80C393
Accurately ripped (confidence 6) [D0A906EF]
Copy OK

Track 8

Filename S:\what.cd\The Triffids - Wide Open Road (Come Ride With Me - 10CD Deluxe Edition, FLAC)\Disc 1\08 The Triffids - Wide Open Road - The Best Of The Triffids - The Seabirds.wav

Pre-gap length 0:00:02.27

Peak level 93.5 %
Extraction speed 4.4 X
Track quality 100.0 %
Test CRC DDA55588
Copy CRC DDA55588
Accurately ripped (confidence 6) [CFE4F531]
Copy OK

Track 9

Filename S:\what.cd\The Triffids - Wide Open Road (Come Ride With Me - 10CD Deluxe Edition, FLAC)\Disc 1\09 The Triffids - Wide Open Road - The Best Of The Triffids - Lonely Stretch.wav

Pre-gap length 0:00:01.46

Peak level 86.8 %
Extraction speed 4.7 X
Track quality 100.0 %
Test CRC 2FAED478
Copy CRC 2FAED478
Accurately ripped (confidence 6) [D31DB5DE]
Copy OK

Track 10

Filename S:\what.cd\The Triffids - Wide Open Road (Come Ride With Me - 10CD Deluxe Edition, FLAC)\Disc 1\10 The Triffids - Wide Open Road - The Best Of The Triffids - Stolen Property.wav

Pre-gap length 0:00:02.00

Peak level 93.3 %
Extraction speed 5.2 X
Track quality 100.0 %
Test CRC 25E6A598
Copy CRC 25E6A598
Accurately ripped (confidence 6) [1E497BC1]
Copy OK

Track 11

Filename S:\what.cd\The Triffids - Wide Open Road (Come Ride With Me - 10CD Deluxe Edition, FLAC)\Disc 1\11 The Triffids - Wide Open Road - The Best Of The Triffids - Kathy Knows.wav

Pre-gap length 0:00:01.45

Peak level 86.5 %
Extraction speed 4.3 X
Track quality 99.9 %
Test CRC 1250748F
Copy CRC 1250748F
Accurately ripped (confidence 6) [FBA43CFE]
Copy OK

Track 12

Filename S:\what.cd\The Triffids - Wide Open Road (Come Ride With Me - 10CD Deluxe Edition, FLAC)\Disc 1\12 The Triffids - Wide Open Road - The Best Of The Triffids - Bury Me Deep.wav

Pre-gap length 0:00:02.00

Peak level 92.6 %
Extraction speed 5.2 X
Track quality 100.0 %
Test CRC A799967F
Copy CRC A799967F
Accurately ripped (confidence 6) [B6B1983B]
Copy OK

Track 13

Filename S:\what.cd\The Triffids - Wide Open Road (Come Ride With Me - 10CD Deluxe Edition, FLAC)\Disc 1\13 The Triffids - Wide Open Road - The Best Of The Triffids - A Trick Of The Light.wav

Pre-gap length 0:00:00.03

Peak level 87.5 %
Extraction speed 5.4 X
Track quality 100.0 %
Test CRC 6FF8FE4C
Copy CRC 6FF8FE4C
Accurately ripped (confidence 6) [1D8EA4DF]
Copy OK

Track 14

Filename S:\what.cd\The Triffids - Wide Open Road (Come Ride With Me - 10CD Deluxe Edition, FLAC)\Disc 1\14 The Triffids - Wide Open Road - The Best Of The Triffids - Jerdacuttup Man.wav

Pre-gap length 0:00:01.42

Peak level 100.0 %
Extraction speed 4.9 X
Track quality 99.9 %
Test CRC 0E9F0A07
Copy CRC 0E9F0A07
Accurately ripped (confidence 6) [7C8C749E]
Copy OK

Track 15

Filename S:\what.cd\The Triffids - Wide Open Road (Come Ride With Me - 10CD Deluxe Edition, FLAC)\Disc 1\15 The Triffids - Wide Open Road - The Best Of The Triffids - Too Hot To Move.wav

Pre-gap length 0:00:02.12

Peak level 83.5 %
Extraction speed 5.8 X
Track quality 100.0 %
Test CRC 6F08B1F1
Copy CRC 6F08B1F1
Accurately ripped (confidence 6) [77A96FEA]
Copy OK

Track 16

Filename S:\what.cd\The Triffids - Wide Open Road (Come Ride With Me - 10CD Deluxe Edition, FLAC)\Disc 1\16 The Triffids - Wide Open Road - The Best Of The Triffids - Goodbye Little Boy.wav

Pre-gap length 0:00:02.00

Peak level 83.5 %
Extraction speed 5.7 X
Track quality 100.0 %
Test CRC 7706B22F
Copy CRC 7706B22F
Accurately ripped (confidence 6) [A5050987]
Copy OK

Track 17

Filename S:\what.cd\The Triffids - Wide Open Road (Come Ride With Me - 10CD Deluxe Edition, FLAC)\Disc 1\17 The Triffids - Wide Open Road - The Best Of The Triffids - New Years Greetings.wav

Pre-gap length 0:00:01.27

Peak level 89.5 %
Extraction speed 5.5 X
Track quality 99.9 %
Test CRC 1689038F
Copy CRC 1689038F
Accurately ripped (confidence 5) [1004D99B]
Copy OK

Track 18

Filename S:\what.cd\The Triffids - Wide Open Road (Come Ride With Me - 10CD Deluxe Edition, FLAC)\Disc 1\18 The Triffids - Wide Open Road - The Best Of The Triffids - Save What You Can.wav

Pre-gap length 0:00:02.00

Peak level 100.0 %
Extraction speed 5.4 X
Track quality 99.9 %
Test CRC FDC48B70
Copy CRC FDC48B70
Accurately ripped (confidence 5) [DE0335C4]
Copy OK

All tracks accurately ripped

No errors occurred

End of status report

==== Log checksum 5097AE78B729A5D8EF68A959067F7343CF289864A4BBF8D077E8E21E39B28BA1 ====
Exact Audio Copy V1.0 beta 1 from 15. November 2010

EAC extraction logfile from 15. January 2011, 7:53

The Triffids / The Early Singles & EPs

Used drive : HL-DT-STDVD+-RW GSA-T11N Adapter: 1 ID: 0

Read mode : SecureUtilize accurate stream : YesDefeat audio cache : YesMake use of C2 pointers : No

Read offset correction : 667Overread into Lead-In and Lead-Out : NoFill up missing offset samples with silence : YesDelete leading and trailing silent blocks : NoNull samples used in CRC calculations : NoUsed interface : Native Win32 interface for Win NT & 2000Gap handling : Appended to previous track

Used output format : User Defined EncoderSelected bitrate : 1024 kBit/sQuality : HighAdd ID3 tag : NoCommand line compressor : C:\Program Files\EAC\FLAC\FLAC.EXEAdditional command line options : -8 -V -T "ARTIST=%a" -T "TITLE=%t" -T "ALBUM=%g" -T "DATE=%y" -T "TRACKNUMBER=%n" -T "GENRE=%m" -T "COMMENT=%e" %j--picture="%i"%j %s -o %d

TOC of the extracted CD

Track | Start | Length | Start sector | End sector --------------------------------------------------------- 1 | 0:00.00 | 1:39.39 | 0 | 7463 2 | 1:39.39 | 2:32.38 | 7464 | 18901 3 | 4:12.02 | 3:03.74 | 18902 | 32700 4 | 7:16.01 | 2:35.74 | 32701 | 44399 5 | 9:52.00 | 2:15.46 | 44400 | 54570 6 | 12:07.46 | 2:56.47 | 54571 | 67817 7 | 15:04.18 | 2:12.55 | 67818 | 77772 8 | 17:16.73 | 4:04.55 | 77773 | 96127 9 | 21:21.53 | 2:46.69 | 96128 | 108646 10 | 24:08.47 | 4:04.53 | 108647 | 126999 11 | 28:13.25 | 3:36.05 | 127000 | 143204 12 | 31:49.30 | 3:44.55 | 143205 | 160059 13 | 35:34.10 | 3:21.56 | 160060 | 175190 14 | 38:55.66 | 2:56.68 | 175191 | 188458 15 | 41:52.59 | 3:33.38 | 188459 | 204471 16 | 45:26.22 | 3:43.24 | 204472 | 221220 17 | 49:09.46 | 8:59.48 | 221221 | 261693 18 | 58:09.19 | 2:52.03 | 261694 | 274596 19 | 61:01.22 | 4:06.01 | 274597 | 293047

Track 1

Filename S:\what.cd\The Triffids - Wide Open Road (Come Ride With Me - 10CD Deluxe Edition, FLAC)\Disc 2\01 The Triffids - The Early Singles & EPs - Stand Up.wav

Pre-gap length 0:00:02.00

Peak level 100.0 % Extraction speed 2.3 X Track quality 100.0 % Test CRC AB2C95B0 Copy CRC AB2C95B0 Accurately ripped (confidence 5) [CAD8B65D] Copy OK

Track 2

Filename S:\what.cd\The Triffids - Wide Open Road (Come Ride With Me - 10CD Deluxe Edition, FLAC)\Disc 2\02 The Triffids - The Early Singles & EPs - Farmers Never Visit Nightclubs.wav

Pre-gap length 0:00:02.00

Peak level 94.4 % Extraction speed 2.8 X Track quality 100.0 % Test CRC D4DFBD3C Copy CRC D4DFBD3C Accurately ripped (confidence 5) [8200AD3D] Copy OK

Track 3

Filename S:\what.cd\The Triffids - Wide Open Road (Come Ride With Me - 10CD Deluxe Edition, FLAC)\Disc 2\03 The Triffids - The Early Singles & EPs - Reverie.wav

Pre-gap length 0:00:02.00

Peak level 89.5 % Extraction speed 3.1 X Track quality 100.0 % Test CRC 15CF3F7D Copy CRC 15CF3F7D Accurately ripped (confidence 5) [9162AB19] Copy OK

Track 4

Filename S:\what.cd\The Triffids - Wide Open Road (Come Ride With Me - 10CD Deluxe Edition, FLAC)\Disc 2\04 The Triffids - The Early Singles & EPs - Place In The Sun.wav

Pre-gap length 0:00:02.00

Peak level 86.5 % Extraction speed 3.2 X Track quality 100.0 % Test CRC E244932F Copy CRC E244932F Accurately ripped (confidence 5) [CF55FD64] Copy OK

Track 5

Filename S:\what.cd\The Triffids - Wide Open Road (Come Ride With Me - 10CD Deluxe Edition, FLAC)\Disc 2\05 The Triffids - The Early Singles & EPs - Joan Of Arc.wav

Pre-gap length 0:00:02.00

Peak level 90.5 % Extraction speed 3.3 X Track quality 100.0 % Test CRC FAEE6D0D Copy CRC FAEE6D0D Accurately ripped (confidence 5) [E67705FA] Copy OK

Track 6

Filename S:\what.cd\The Triffids - Wide Open Road (Come Ride With Me - 10CD Deluxe Edition, FLAC)\Disc 2\06 The Triffids - The Early Singles & EPs - This Boy.wav

Pre-gap length 0:00:02.00

Peak level 90.5 % Extraction speed 2.9 X Track quality 99.9 % Test CRC 8CA13EF8 Copy CRC 8CA13EF8 Accurately ripped (confidence 5) [A46E7D46] Copy OK

Track 7

Filename S:\what.cd\The Triffids - Wide Open Road (Come Ride With Me - 10CD Deluxe Edition, FLAC)\Disc 2\07 The Triffids - The Early Singles & EPs - Spanish Blue.wav

Pre-gap length 0:00:02.00

Peak level 92.2 % Extraction speed 3.6 X Track quality 100.0 % Test CRC DCA8A789 Copy CRC DCA8A789 Accurately ripped (confidence 5) [A84A857A] Copy OK

Track 8

Filename S:\what.cd\The Triffids - Wide Open Road (Come Ride With Me - 10CD Deluxe Edition, FLAC)\Disc 2\08 The Triffids - The Early Singles & EPs - Twisted Brain.wav

Pre-gap length 0:00:02.00

Peak level 92.6 % Extraction speed 3.5 X Track quality 99.9 % Test CRC 93E32292 Copy CRC 93E32292 Accurately ripped (confidence 5) [2706901F] Copy OK

Track 9

Filename S:\what.cd\The Triffids - Wide Open Road (Come Ride With Me - 10CD Deluxe Edition, FLAC)\Disc 2\09 The Triffids - The Early Singles & EPs - Bad Timing.wav

Pre-gap length 0:00:02.00

Peak level 91.2 % Extraction speed 4.1 X Track quality 100.0 % Test CRC 22263F16 Copy CRC 22263F16 Accurately ripped (confidence 5) [1D466D02] Copy OK

Track 10

Filename S:\what.cd\The Triffids - Wide Open Road (Come Ride With Me - 10CD Deluxe Edition, FLAC)\Disc 2\10 The Triffids - The Early Singles & EPs - Left To Rot.wav

Pre-gap length 0:00:02.00

Peak level 92.0 % Extraction speed 3.8 X Track quality 99.9 % Test CRC 85F51CF1 Copy CRC 85F51CF1 Accurately ripped (confidence 5) [6BFA2AD4] Copy OK

Track 11

Filename S:\what.cd\The Triffids - Wide Open Road (Come Ride With Me - 10CD Deluxe Edition, FLAC)\Disc 2\11 The Triffids - The Early Singles & EPs - Being Driven.wav

Pre-gap length 0:00:02.00

Peak level 92.7 % Extraction speed 4.7 X Track quality 100.0 % Test CRC 0700B373 Copy CRC 0700B373 Accurately ripped (confidence 5) [A6C73016] Copy OK

Track 12

Filename S:\what.cd\The Triffids - Wide Open Road (Come Ride With Me - 10CD Deluxe Edition, FLAC)\Disc 2\12 The Triffids - The Early Singles & EPs - Snake Pit.wav

Pre-gap length 0:00:02.00

Peak level 91.4 % Extraction speed 4.8 X Track quality 100.0 % Test CRC F7B08281 Copy CRC F7B08281 Accurately ripped (confidence 5) [266AADDD] Copy OK

Track 13

Filename S:\what.cd\The Triffids - Wide Open Road (Come Ride With Me - 10CD Deluxe Edition, FLAC)\Disc 2\13 The Triffids - The Early Singles & EPs - Beautiful Waste.wav

Pre-gap length 0:00:02.00

Peak level 88.5 % Extraction speed 4.9 X Track quality 100.0 % Test CRC F92CB42E Copy CRC F92CB42E Accurately ripped (confidence 5) [1924D15A] Copy OK

Track 14

Filename S:\what.cd\The Triffids - Wide Open Road (Come Ride With Me - 10CD Deluxe Edition, FLAC)\Disc 2\14 The Triffids - The Early Singles & EPs - Property Is Condemned.wav

Pre-gap length 0:00:02.00

Peak level 90.5 % Extraction speed 4.9 X Track quality 100.0 % Test CRC D6E059A7 Copy CRC D6E059A7 Accurately ripped (confidence 4) [26E1ED38] Copy OK

Track 15

Filename S:\what.cd\The Triffids - Wide Open Road (Come Ride With Me - 10CD Deluxe Edition, FLAC)\Disc 2\15 The Triffids - The Early Singles & EPs - Bright Lights Big City.wav

Pre-gap length 0:00:02.00

Peak level 84.3 % Extraction speed 4.3 X Track quality 99.9 % Test CRC 1079DDDC Copy CRC 1079DDDC Accurately ripped (confidence 4) [545D038F] Copy OK

Track 16

Filename S:\what.cd\The Triffids - Wide Open Road (Come Ride With Me - 10CD Deluxe Edition, FLAC)\Disc 2\16 The Triffids - The Early Singles & EPs - Monkey On My Back.wav

Pre-gap length 0:00:02.00

Peak level 93.0 % Extraction speed 5.6 X Track quality 100.0 % Test CRC BFB0DE49 Copy CRC BFB0DE49 Accurately ripped (confidence 4) [F21C9D0E] Copy OK

Track 17

Filename S:\what.cd\The Triffids - Wide Open Road (Come Ride With Me - 10CD Deluxe Edition, FLAC)\Disc 2\17 The Triffids - The Early Singles & EPs - Field Of Glass.wav

Pre-gap length 0:00:02.00

Peak level 89.5 % Extraction speed 6.4 X Track quality 100.0 % Test CRC 67D2BF23 Copy CRC 67D2BF23 Accurately ripped (confidence 4) [10C73847] Copy OK

Track 18

Filename S:\what.cd\The Triffids - Wide Open Road (Come Ride With Me - 10CD Deluxe Edition, FLAC)\Disc 2\18 The Triffids - The Early Singles & EPs - You Don't Miss Your Water.wav

Pre-gap length 0:00:02.00

Peak level 97.7 % Extraction speed 5.6 X Track quality 100.0 % Test CRC 97E6E47F Copy CRC 97E6E47F Accurately ripped (confidence 5) [A74122FE] Copy OK

Track 19

Filename S:\what.cd\The Triffids - Wide Open Road (Come Ride With Me - 10CD Deluxe Edition, FLAC)\Disc 2\19 The Triffids - The Early Singles & EPs - Convent Walls.wav

Pre-gap length 0:00:02.00

Peak level 100.0 % Extraction speed 6.2 X Track quality 100.0 % Test CRC 1AD0D744 Copy CRC 1AD0D744 Accurately ripped (confidence 4) [13BDCD69] Copy OK

All tracks accurately ripped

No errors occurred

End of status report

==== Log checksum CC54E7FF207B4BFF8D482694001E8548E3B9A28C4951DAC5C39780D3A10E7D7D ====
Exact Audio Copy V1.0 beta 1 from 15. November 2010

EAC extraction logfile from 15. January 2011, 8:30

The Triffids / The Early Cassettes (1-4)

Used drive : HL-DT-STDVD+-RW GSA-T11N Adapter: 1 ID: 0

Read mode : SecureUtilize accurate stream : YesDefeat audio cache : YesMake use of C2 pointers : No

Read offset correction : 667Overread into Lead-In and Lead-Out : NoFill up missing offset samples with silence : YesDelete leading and trailing silent blocks : NoNull samples used in CRC calculations : NoUsed interface : Native Win32 interface for Win NT & 2000Gap handling : Appended to previous track

Used output format : User Defined EncoderSelected bitrate : 1024 kBit/sQuality : HighAdd ID3 tag : NoCommand line compressor : C:\Program Files\EAC\FLAC\FLAC.EXEAdditional command line options : -8 -V -T "ARTIST=%a" -T "TITLE=%t" -T "ALBUM=%g" -T "DATE=%y" -T "TRACKNUMBER=%n" -T "GENRE=%m" -T "COMMENT=%e" %j--picture="%i"%j %s -o %d

TOC of the extracted CD

Track | Start | Length | Start sector | End sector --------------------------------------------------------- 1 | 0:00.00 | 4:21.31 | 0 | 19605 2 | 4:21.31 | 2:24.64 | 19606 | 30469 3 | 6:46.20 | 1:58.57 | 30470 | 39376 4 | 8:45.02 | 4:52.03 | 39377 | 61279 5 | 13:37.05 | 3:13.53 | 61280 | 75807 6 | 16:50.58 | 2:42.07 | 75808 | 87964 7 | 19:32.65 | 1:46.71 | 87965 | 95985 8 | 21:19.61 | 4:40.24 | 95986 | 117009 9 | 26:00.10 | 1:53.10 | 117010 | 125494 10 | 27:53.20 | 3:26.70 | 125495 | 141014 11 | 31:20.15 | 2:53.48 | 141015 | 154037 12 | 34:13.63 | 0:17.68 | 154038 | 155380 13 | 34:31.56 | 3:09.59 | 155381 | 169614 14 | 37:41.40 | 2:44.30 | 169615 | 181944 15 | 40:25.70 | 2:44.31 | 181945 | 194275 16 | 43:10.26 | 3:41.14 | 194276 | 210864 17 | 46:51.40 | 3:45.25 | 210865 | 227764 18 | 50:36.65 | 2:44.21 | 227765 | 240085 19 | 53:21.11 | 4:06.36 | 240086 | 258571 20 | 57:27.47 | 3:17.23 | 258572 | 273369 21 | 60:44.70 | 3:10.55 | 273370 | 287674 22 | 63:55.50 | 3:48.51 | 287675 | 304825 23 | 67:44.26 | 2:50.12 | 304826 | 317587 24 | 70:34.38 | 3:09.34 | 317588 | 331796

Track 1

Filename S:\what.cd\The Triffids - Wide Open Road (Come Ride With Me - 10CD Deluxe Edition, FLAC)\Disc 3\01 The Triffids - The Early Cassettes (1-4) - Mark.wav

Pre-gap length 0:00:02.00

Peak level 100.0 % Extraction speed 3.0 X Track quality 100.0 % Test CRC 58DDE571 Copy CRC 58DDE571 Accurately ripped (confidence 5) [96B0E1F8] Copy OK

Track 2

Filename S:\what.cd\The Triffids - Wide Open Road (Come Ride With Me - 10CD Deluxe Edition, FLAC)\Disc 3\02 The Triffids - The Early Cassettes (1-4) - Martyrs.wav

Peak level 100.0 % Extraction speed 3.0 X Track quality 100.0 % Test CRC D3A007A4 Copy CRC D3A007A4 Accurately ripped (confidence 5) [380D6A50] Copy OK

Track 3

Filename S:\what.cd\The Triffids - Wide Open Road (Come Ride With Me - 10CD Deluxe Edition, FLAC)\Disc 3\03 The Triffids - The Early Cassettes (1-4) - No.wav

Peak level 100.0 % Extraction speed 2.9 X Track quality 100.0 % Test CRC 64B60B37 Copy CRC 64B60B37 Accurately ripped (confidence 5) [703A78B6] Copy OK

Track 4

Filename S:\what.cd\The Triffids - Wide Open Road (Come Ride With Me - 10CD Deluxe Edition, FLAC)\Disc 3\04 The Triffids - The Early Cassettes (1-4) - Take Me To Your Leader.wav

Peak level 100.0 % Extraction speed 3.7 X Track quality 100.0 % Test CRC 87AE4518 Copy CRC 87AE4518 Accurately ripped (confidence 5) [3F6B2263] Copy OK

Track 5

Filename S:\what.cd\The Triffids - Wide Open Road (Come Ride With Me - 10CD Deluxe Edition, FLAC)\Disc 3\05 The Triffids - The Early Cassettes (1-4) - Philosophical Stroll.wav

Peak level 100.0 % Extraction speed 3.8 X Track quality 100.0 % Test CRC 0B20BC32 Copy CRC 0B20BC32 Accurately ripped (confidence 5) [2C0A9524] Copy OK

Track 6

Filename S:\what.cd\The Triffids - Wide Open Road (Come Ride With Me - 10CD Deluxe Edition, FLAC)\Disc 3\06 The Triffids - The Early Cassettes (1-4) - What's The Difference.wav

Peak level 100.0 % Extraction speed 3.8 X Track quality 100.0 % Test CRC 3BF77815 Copy CRC 3BF77815 Accurately ripped (confidence 5) [7E29F416] Copy OK

Track 7

Filename S:\what.cd\The Triffids - Wide Open Road (Come Ride With Me - 10CD Deluxe Edition, FLAC)\Disc 3\07 The Triffids - The Early Cassettes (1-4) - Butterfly.wav

Peak level 100.0 % Extraction speed 3.5 X Track quality 100.0 % Test CRC 345AE145 Copy CRC 345AE145 Accurately ripped (confidence 5) [FB71C019] Copy OK

Track 8

Filename S:\what.cd\The Triffids - Wide Open Road (Come Ride With Me - 10CD Deluxe Edition, FLAC)\Disc 3\08 The Triffids - The Early Cassettes (1-4) - New Vision.wav

Peak level 100.0 % Extraction speed 4.4 X Track quality 100.0 % Test CRC B4ACC834 Copy CRC B4ACC834 Accurately ripped (confidence 5) [7B1D54E0] Copy OK

Track 9

Filename S:\what.cd\The Triffids - Wide Open Road (Come Ride With Me - 10CD Deluxe Edition, FLAC)\Disc 3\09 The Triffids - The Early Cassettes (1-4) - The Diplomatic Corp.wav

Pre-gap length 0:00:01.05

Peak level 90.8 % Extraction speed 3.8 X Track quality 100.0 % Test CRC 6CF5D988 Copy CRC 6CF5D988 Accurately ripped (confidence 5) [CB179D9B] Copy OK

Track 10

Filename S:\what.cd\The Triffids - Wide Open Road (Come Ride With Me - 10CD Deluxe Edition, FLAC)\Disc 3\10 The Triffids - The Early Cassettes (1-4) - Out Of Time.wav

Peak level 100.0 % Extraction speed 4.5 X Track quality 100.0 % Test CRC D0335888 Copy CRC D0335888 Accurately ripped (confidence 5) [2F796C0C] Copy OK

Track 11

Filename S:\what.cd\The Triffids - Wide Open Road (Come Ride With Me - 10CD Deluxe Edition, FLAC)\Disc 3\11 The Triffids - The Early Cassettes (1-4) - I Was A Teenage Teenager.wav

Pre-gap length 0:00:01.35

Peak level 100.0 % Extraction speed 4.5 X Track quality 100.0 % Test CRC 3BDFE22E Copy CRC 3BDFE22E Accurately ripped (confidence 5) [AB8B2052] Copy OK

Track 12

Filename S:\what.cd\The Triffids - Wide Open Road (Come Ride With Me - 10CD Deluxe Edition, FLAC)\Disc 3\12 The Triffids - The Early Cassettes (1-4) - Sixteen Again (Short Version).wav

Peak level 93.6 % Extraction speed 0.8 X Track quality 99.4 % Test CRC 17FA9158 Copy CRC 17FA9158 Accurately ripped (confidence 5) [28B30881] Copy OK

Track 13

Filename S:\what.cd\The Triffids - Wide Open Road (Come Ride With Me - 10CD Deluxe Edition, FLAC)\Disc 3\13 The Triffids - The Early Cassettes (1-4) - Jeremy Joy.wav

Peak level 97.7 % Extraction speed 4.6 X Track quality 100.0 % Test CRC 03FCC49F Copy CRC 03FCC49F Accurately ripped (confidence 5) [3589F868] Copy OK

Track 14

Filename S:\what.cd\The Triffids - Wide Open Road (Come Ride With Me - 10CD Deluxe Edition, FLAC)\Disc 3\14 The Triffids - The Early Cassettes (1-4) - Cyclone.wav

Pre-gap length 0:00:00.66

Peak level 100.0 % Extraction speed 4.7 X Track quality 100.0 % Test CRC 9BF4AB1C Copy CRC 9BF4AB1C Accurately ripped (confidence 5) [6061883A] Copy OK

Track 15

Filename S:\what.cd\The Triffids - Wide Open Road (Come Ride With Me - 10CD Deluxe Edition, FLAC)\Disc 3\15 The Triffids - The Early Cassettes (1-4) - Artist.wav

Peak level 100.0 % Extraction speed 4.8 X Track quality 100.0 % Test CRC 747A876A Copy CRC 747A876A Accurately ripped (confidence 5) [089C3F3B] Copy OK

Track 16

Filename S:\what.cd\The Triffids - Wide Open Road (Come Ride With Me - 10CD Deluxe Edition, FLAC)\Disc 3\16 The Triffids - The Early Cassettes (1-4) - Human Interest.wav

Peak level 100.0 % Extraction speed 5.1 X Track quality 100.0 % Test CRC E105564F Copy CRC E105564F Accurately ripped (confidence 4) [1492CFAB] Copy OK

Track 17

Filename S:\what.cd\The Triffids - Wide Open Road (Come Ride With Me - 10CD Deluxe Edition, FLAC)\Disc 3\17 The Triffids - The Early Cassettes (1-4) - Careless City.wav

Peak level 100.0 % Extraction speed 5.3 X Track quality 100.0 % Test CRC E9732321 Copy CRC E9732321 Accurately ripped (confidence 5) [8E974527] Copy OK

Track 18

Filename S:\what.cd\The Triffids - Wide Open Road (Come Ride With Me - 10CD Deluxe Edition, FLAC)\Disc 3\18 The Triffids - The Early Cassettes (1-4) - Blox.wav

Peak level 100.0 % Extraction speed 5.1 X Track quality 100.0 % Test CRC FF33EEBD Copy CRC FF33EEBD Accurately ripped (confidence 5) [2F7CCBEA] Copy OK

Track 19

Filename S:\what.cd\The Triffids - Wide Open Road (Come Ride With Me - 10CD Deluxe Edition, FLAC)\Disc 3\19 The Triffids - The Early Cassettes (1-4) - Fly To The Moon.wav

Peak level 100.0 % Extraction speed 5.7 X Track quality 100.0 % Test CRC 0CF95CD0 Copy CRC 0CF95CD0 Accurately ripped (confidence 5) [7F73A6BF] Copy OK

Track 20

Filename S:\what.cd\The Triffids - Wide Open Road (Come Ride With Me - 10CD Deluxe Edition, FLAC)\Disc 3\20 The Triffids - The Early Cassettes (1-4) - Little Voices.wav

Peak level 100.0 % Extraction speed 5.7 X Track quality 100.0 % Test CRC A3BA06ED Copy CRC A3BA06ED Accurately ripped (confidence 5) [D42BEE37] Copy OK

Track 21

Filename S:\what.cd\The Triffids - Wide Open Road (Come Ride With Me - 10CD Deluxe Edition, FLAC)\Disc 3\21 The Triffids - The Early Cassettes (1-4) - Actress.wav

Peak level 100.0 % Extraction speed 5.7 X Track quality 100.0 % Test CRC 1CD08F7E Copy CRC 1CD08F7E Accurately ripped (confidence 5) [4D711E11] Copy OK

Track 22

Filename S:\what.cd\The Triffids - Wide Open Road (Come Ride With Me - 10CD Deluxe Edition, FLAC)\Disc 3\22 The Triffids - The Early Cassettes (1-4) - Adaptable.wav

Peak level 100.0 % Extraction speed 5.9 X Track quality 100.0 % Test CRC 618AFCBE Copy CRC 618AFCBE Accurately ripped (confidence 5) [330FE673] Copy OK

Track 23

Filename S:\what.cd\The Triffids - Wide Open Road (Come Ride With Me - 10CD Deluxe Edition, FLAC)\Disc 3\23 The Triffids - The Early Cassettes (1-4) - Aim For My Heart.wav

Peak level 100.0 % Extraction speed 5.8 X Track quality 100.0 % Test CRC 2963B3FA Copy CRC 2963B3FA Accurately ripped (confidence 5) [4E103138] Copy OK

Track 24

Filename S:\what.cd\The Triffids - Wide Open Road (Come Ride With Me - 10CD Deluxe Edition, FLAC)\Disc 3\24 The Triffids - The Early Cassettes (1-4) - Glamour Boy.wav

Peak level 100.0 % Extraction speed 6.0 X Track quality 100.0 % Test CRC 94C2A3DE Copy CRC 94C2A3DE Accurately ripped (confidence 5) [545BC4F1] Copy OK

All tracks accurately ripped

No errors occurred

End of status report

==== Log checksum E02B3234EA0E61049AE51820BF26F6B3507CAFF800093382B20943AAD739C0B5 ====
Exact Audio Copy V1.0 beta 1 from 15. November 2010

EAC extraction logfile from 15. January 2011, 9:10

The Triffids / The Early Cassettes (5-6)

Used drive : HL-DT-STDVD+-RW GSA-T11N Adapter: 1 ID: 0

Read mode : SecureUtilize accurate stream : YesDefeat audio cache : YesMake use of C2 pointers : No

Read offset correction : 667Overread into Lead-In and Lead-Out : NoFill up missing offset samples with silence : YesDelete leading and trailing silent blocks : NoNull samples used in CRC calculations : NoUsed interface : Native Win32 interface for Win NT & 2000Gap handling : Appended to previous track

Used output format : User Defined EncoderSelected bitrate : 1024 kBit/sQuality : HighAdd ID3 tag : NoCommand line compressor : C:\Program Files\EAC\FLAC\FLAC.EXEAdditional command line options : -8 -V -T "ARTIST=%a" -T "TITLE=%t" -T "ALBUM=%g" -T "DATE=%y" -T "TRACKNUMBER=%n" -T "GENRE=%m" -T "COMMENT=%e" %j--picture="%i"%j %s -o %d

TOC of the extracted CD

Track | Start | Length | Start sector | End sector --------------------------------------------------------- 1 | 0:00.00 | 3:21.62 | 0 | 15136 2 | 3:21.62 | 2:44.52 | 15137 | 27488 3 | 6:06.39 | 2:26.50 | 27489 | 38488 4 | 8:33.14 | 2:33.61 | 38489 | 50024 5 | 11:07.00 | 3:39.47 | 50025 | 66496 6 | 14:46.47 | 3:01.63 | 66497 | 80134 7 | 17:48.35 | 2:19.27 | 80135 | 90586 8 | 20:07.62 | 1:33.66 | 90587 | 97627 9 | 21:41.53 | 1:47.21 | 97628 | 105673 10 | 23:28.74 | 3:03.47 | 105674 | 119445 11 | 26:32.46 | 2:10.34 | 119446 | 129229 12 | 28:43.05 | 2:14.33 | 129230 | 139312 13 | 30:57.38 | 1:31.50 | 139313 | 146187 14 | 32:29.13 | 1:18.54 | 146188 | 152091 15 | 33:47.67 | 1:42.47 | 152092 | 159788 16 | 35:30.39 | 2:37.72 | 159789 | 171635 17 | 38:08.36 | 2:33.06 | 171636 | 183116 18 | 40:41.42 | 2:17.57 | 183117 | 193448 19 | 42:59.24 | 2:43.56 | 193449 | 205729 20 | 45:43.05 | 1:41.48 | 205730 | 213352 21 | 47:24.53 | 2:16.39 | 213353 | 223591 22 | 49:41.17 | 2:45.25 | 223592 | 235991 23 | 52:26.42 | 2:58.31 | 235992 | 249372 24 | 55:24.73 | 3:00.72 | 249373 | 262944 25 | 58:25.70 | 2:39.02 | 262945 | 274871 26 | 61:04.72 | 3:02.72 | 274872 | 288593 27 | 64:07.69 | 2:37.42 | 288594 | 300410 28 | 66:45.36 | 1:44.63 | 300411 | 308273 29 | 68:30.24 | 2:44.22 | 308274 | 320595 30 | 71:14.46 | 2:45.28 | 320596 | 332998

Track 1

Filename S:\what.cd\The Triffids - Wide Open Road (Come Ride With Me - 10CD Deluxe Edition, FLAC)\Disc 4 - The Early Cassettes (5 & 6)\01 The Triffids - The Early Cassettes (5-6) - Tuscan St Retirement Village.wav

Pre-gap length 0:00:02.00

Peak level 96.6 % Extraction speed 2.8 X Track quality 100.0 % Test CRC E9B0C263 Copy CRC E9B0C263 Accurately ripped (confidence 5) [535E87A3] Copy OK

Track 2

Filename S:\what.cd\The Triffids - Wide Open Road (Come Ride With Me - 10CD Deluxe Edition, FLAC)\Disc 4 - The Early Cassettes (5 & 6)\02 The Triffids - The Early Cassettes (5-6) - My Next Door Neighbour.wav

Peak level 96.6 % Extraction speed 2.3 X Track quality 99.9 % Test CRC 7B2F0BC2 Copy CRC 7B2F0BC2 Accurately ripped (confidence 5) [4F8863A7] Copy OK

Track 3

Filename S:\what.cd\The Triffids - Wide Open Road (Come Ride With Me - 10CD Deluxe Edition, FLAC)\Disc 4 - The Early Cassettes (5 & 6)\03 The Triffids - The Early Cassettes (5-6) - Farmers Never Visit Nightclubs.wav

Peak level 93.3 % Extraction speed 3.0 X Track quality 100.0 % Test CRC 971EE277 Copy CRC 971EE277 Accurately ripped (confidence 5) [AF1CA07F] Copy OK

Track 4

Filename S:\what.cd\The Triffids - Wide Open Road (Come Ride With Me - 10CD Deluxe Edition, FLAC)\Disc 4 - The Early Cassettes (5 & 6)\04 The Triffids - The Early Cassettes (5-6) - It Was A Wednesday.wav

Peak level 96.6 % Extraction speed 3.2 X Track quality 100.0 % Test CRC 804F20EE Copy CRC 804F20EE Accurately ripped (confidence 5) [7F869F2E] Copy OK

Track 5

Filename S:\what.cd\The Triffids - Wide Open Road (Come Ride With Me - 10CD Deluxe Edition, FLAC)\Disc 4 - The Early Cassettes (5 & 6)\05 The Triffids - The Early Cassettes (5-6) - I Can't Wait To See Your Gun.wav

Peak level 96.6 % Extraction speed 3.7 X Track quality 100.0 % Test CRC D4A23512 Copy CRC D4A23512 Accurately ripped (confidence 5) [E6DE241D] Copy OK

Track 6

Filename S:\what.cd\The Triffids - Wide Open Road (Come Ride With Me - 10CD Deluxe Edition, FLAC)\Disc 4 - The Early Cassettes (5 & 6)\06 The Triffids - The Early Cassettes (5-6) - Surfer Boy In Leather.wav

Peak level 96.6 % Extraction speed 3.7 X Track quality 100.0 % Test CRC E80621CA Copy CRC E80621CA Accurately ripped (confidence 5) [296ACCBF] Copy OK

Track 7

Filename S:\what.cd\The Triffids - Wide Open Road (Come Ride With Me - 10CD Deluxe Edition, FLAC)\Disc 4 - The Early Cassettes (5 & 6)\07 The Triffids - The Early Cassettes (5-6) - On The Street Where You Live.wav

Peak level 96.6 % Extraction speed 3.6 X Track quality 100.0 % Test CRC 4D9ADCDC Copy CRC 4D9ADCDC Accurately ripped (confidence 5) [63CA9487] Copy OK

Track 8

Filename S:\what.cd\The Triffids - Wide Open Road (Come Ride With Me - 10CD Deluxe Edition, FLAC)\Disc 4 - The Early Cassettes (5 & 6)\08 The Triffids - The Early Cassettes (5-6) - In The Tropicana Lounge.wav

Peak level 91.2 % Extraction speed 3.3 X Track quality 100.0 % Test CRC B8EDA2D4 Copy CRC B8EDA2D4 Accurately ripped (confidence 5) [4F495D4F] Copy OK

Track 9

Filename S:\what.cd\The Triffids - Wide Open Road (Come Ride With Me - 10CD Deluxe Edition, FLAC)\Disc 4 - The Early Cassettes (5 & 6)\09 The Triffids - The Early Cassettes (5-6) - The Trumpet Of The Moon.wav

Peak level 86.1 % Extraction speed 3.6 X Track quality 100.0 % Test CRC 019BD187 Copy CRC 019BD187 Accurately ripped (confidence 5) [A545E925] Copy OK

Track 10

Filename S:\what.cd\The Triffids - Wide Open Road (Come Ride With Me - 10CD Deluxe Edition, FLAC)\Disc 4 - The Early Cassettes (5 & 6)\10 The Triffids - The Early Cassettes (5-6) - Pile Up.wav

Peak level 83.1 % Extraction speed 3.3 X Track quality 99.9 % Test CRC CCE939F2 Copy CRC CCE939F2 Accurately ripped (confidence 5) [8C4B303A] Copy OK

Track 11

Filename S:\what.cd\The Triffids - Wide Open Road (Come Ride With Me - 10CD Deluxe Edition, FLAC)\Disc 4 - The Early Cassettes (5 & 6)\11 The Triffids - The Early Cassettes (5-6) - Never Again.wav

Peak level 79.4 % Extraction speed 3.9 X Track quality 100.0 % Test CRC D8979267 Copy CRC D8979267 Accurately ripped (confidence 5) [EA50CD94] Copy OK

Track 12

Filename S:\what.cd\The Triffids - Wide Open Road (Come Ride With Me - 10CD Deluxe Edition, FLAC)\Disc 4 - The Early Cassettes (5 & 6)\12 The Triffids - The Early Cassettes (5-6) - Hey Mary Ann.wav

Peak level 77.6 % Extraction speed 4.0 X Track quality 100.0 % Test CRC 3CB39490 Copy CRC 3CB39490 Accurately ripped (confidence 5) [44E1E7EB] Copy OK

Track 13

Filename S:\what.cd\The Triffids - Wide Open Road (Come Ride With Me - 10CD Deluxe Edition, FLAC)\Disc 4 - The Early Cassettes (5 & 6)\13 The Triffids - The Early Cassettes (5-6) - Nervous Side Of Town.wav

Peak level 90.1 % Extraction speed 3.7 X Track quality 100.0 % Test CRC 68E18F2E Copy CRC 68E18F2E Accurately ripped (confidence 5) [4C36BCD7] Copy OK

Track 14

Filename S:\what.cd\The Triffids - Wide Open Road (Come Ride With Me - 10CD Deluxe Edition, FLAC)\Disc 4 - The Early Cassettes (5 & 6)\14 The Triffids - The Early Cassettes (5-6) - Southern Religious Program Pt 1.wav

Peak level 86.1 % Extraction speed 3.6 X Track quality 100.0 % Test CRC 4E9CB692 Copy CRC 4E9CB692 Accurately ripped (confidence 5) [E38802AB] Copy OK

Track 15

Filename S:\what.cd\The Triffids - Wide Open Road (Come Ride With Me - 10CD Deluxe Edition, FLAC)\Disc 4 - The Early Cassettes (5 & 6)\15 The Triffids - The Early Cassettes (5-6) - Southern Religious Program Pt 2.wav

Peak level 74.9 % Extraction speed 2.9 X Track quality 99.8 % Test CRC 7CCD0553 Copy CRC 7CCD0553 Accurately ripped (confidence 5) [7F0774EA] Copy OK

Track 16

Filename S:\what.cd\The Triffids - Wide Open Road (Come Ride With Me - 10CD Deluxe Edition, FLAC)\Disc 4 - The Early Cassettes (5 & 6)\16 The Triffids - The Early Cassettes (5-6) - Somewhere In The Shadows.wav

Peak level 85.1 % Extraction speed 4.5 X Track quality 100.0 % Test CRC 4654ADB0 Copy CRC 4654ADB0 Accurately ripped (confidence 5) [CA6ED92C] Copy OK

Track 17

Filename S:\what.cd\The Triffids - Wide Open Road (Come Ride With Me - 10CD Deluxe Edition, FLAC)\Disc 4 - The Early Cassettes (5 & 6)\17 The Triffids - The Early Cassettes (5-6) - You Can Spend.wav

Peak level 81.2 % Extraction speed 3.6 X Track quality 99.9 % Test CRC 3A87D3D5 Copy CRC 3A87D3D5 Accurately ripped (confidence 5) [D1E0EB43] Copy OK

Track 18

Filename S:\what.cd\The Triffids - Wide Open Road (Come Ride With Me - 10CD Deluxe Edition, FLAC)\Disc 4 - The Early Cassettes (5 & 6)\18 The Triffids - The Early Cassettes (5-6) - The Marrying Kind.wav

Peak level 87.0 % Extraction speed 4.6 X Track quality 100.0 % Test CRC 7F5D6B1B Copy CRC 7F5D6B1B Accurately ripped (confidence 5) [001B3948] Copy OK

Track 19

Filename S:\what.cd\The Triffids - Wide Open Road (Come Ride With Me - 10CD Deluxe Edition, FLAC)\Disc 4 - The Early Cassettes (5 & 6)\19 The Triffids - The Early Cassettes (5-6) - A Place In The Sun.wav

Peak level 81.2 % Extraction speed 4.9 X Track quality 100.0 % Test CRC 2701D454 Copy CRC 2701D454 Accurately ripped (confidence 5) [AD43807E] Copy OK

Track 20

Filename S:\what.cd\The Triffids - Wide Open Road (Come Ride With Me - 10CD Deluxe Edition, FLAC)\Disc 4 - The Early Cassettes (5 & 6)\20 The Triffids - The Early Cassettes (5-6) - Stand Up.wav

Peak level 88.1 % Extraction speed 4.4 X Track quality 100.0 % Test CRC 7FDCA6A4 Copy CRC 7FDCA6A4 Accurately ripped (confidence 5) [7B55CA86] Copy OK

Track 21

Filename S:\what.cd\The Triffids - Wide Open Road (Come Ride With Me - 10CD Deluxe Edition, FLAC)\Disc 4 - The Early Cassettes (5 & 6)\21 The Triffids - The Early Cassettes (5-6) - Calm Down.wav

Peak level 86.1 % Extraction speed 4.9 X Track quality 100.0 % Test CRC 69E22377 Copy CRC 69E22377 Accurately ripped (confidence 5) [78DC50C2] Copy OK

Track 22

Filename S:\what.cd\The Triffids - Wide Open Road (Come Ride With Me - 10CD Deluxe Edition, FLAC)\Disc 4 - The Early Cassettes (5 & 6)\22 The Triffids - The Early Cassettes (5-6) - Reverie.wav

Peak level 93.3 % Extraction speed 5.0 X Track quality 100.0 % Test CRC 9EB20237 Copy CRC 9EB20237 Accurately ripped (confidence 5) [CA2F13DD] Copy OK

Track 23

Filename S:\what.cd\The Triffids - Wide Open Road (Come Ride With Me - 10CD Deluxe Edition, FLAC)\Disc 4 - The Early Cassettes (5 & 6)\23 The Triffids - The Early Cassettes (5-6) - Don't You Know There's A World Going On.wav

Peak level 87.0 % Extraction speed 5.4 X Track quality 100.0 % Test CRC 39F449DB Copy CRC 39F449DB Accurately ripped (confidence 5) [4A58B804] Copy OK

Track 24

Filename S:\what.cd\The Triffids - Wide Open Road (Come Ride With Me - 10CD Deluxe Edition, FLAC)\Disc 4 - The Early Cassettes (5 & 6)\24 The Triffids - The Early Cassettes (5-6) - No Desire.wav

Peak level 92.2 % Extraction speed 4.4 X Track quality 99.9 % Test CRC 4279EFB5 Copy CRC 4279EFB5 Accurately ripped (confidence 5) [F3BBF269] Copy OK

Track 25

Filename S:\what.cd\The Triffids - Wide Open Road (Come Ride With Me - 10CD Deluxe Edition, FLAC)\Disc 4 - The Early Cassettes (5 & 6)\25 The Triffids - The Early Cassettes (5-6) - Digging A Hole.wav

Peak level 93.3 % Extraction speed 5.4 X Track quality 100.0 % Test CRC 8063109C Copy CRC 8063109C Accurately ripped (confidence 5) [493E820B] Copy OK

Track 26

Filename S:\what.cd\The Triffids - Wide Open Road (Come Ride With Me - 10CD Deluxe Edition, FLAC)\Disc 4 - The Early Cassettes (5 & 6)\26 The Triffids - The Early Cassettes (5-6) - Terry Angeline.wav

Peak level 94.4 % Extraction speed 4.5 X Track quality 99.9 % Test CRC 79976AD1 Copy CRC 79976AD1 Accurately ripped (confidence 5) [5A372B0E] Copy OK

Track 27

Filename S:\what.cd\The Triffids - Wide Open Road (Come Ride With Me - 10CD Deluxe Edition, FLAC)\Disc 4 - The Early Cassettes (5 & 6)\27 The Triffids - The Early Cassettes (5-6) - Native Bride.wav

Peak level 93.3 % Extraction speed 5.7 X Track quality 100.0 % Test CRC 971C84A6 Copy CRC 971C84A6 Accurately ripped (confidence 5) [EDD32367] Copy OK

Track 28

Filename S:\what.cd\The Triffids - Wide Open Road (Come Ride With Me - 10CD Deluxe Edition, FLAC)\Disc 4 - The Early Cassettes (5 & 6)\28 The Triffids - The Early Cassettes (5-6) - Providence.wav

Peak level 94.4 % Extraction speed 5.1 X Track quality 100.0 % Test CRC 53C11BC7 Copy CRC 53C11BC7 Accurately ripped (confidence 5) [A96B1C4A] Copy OK

Track 29

Filename S:\what.cd\The Triffids - Wide Open Road (Come Ride With Me - 10CD Deluxe Edition, FLAC)\Disc 4 - The Early Cassettes (5 & 6)\29 The Triffids - The Early Cassettes (5-6) - Thanks For Everything.wav

Peak level 94.4 % Extraction speed 5.7 X Track quality 100.0 % Test CRC A181DBD3 Copy CRC A181DBD3 Accurately ripped (confidence 5) [CC6CD1FB] Copy OK

Track 30

Filename S:\what.cd\The Triffids - Wide Open Road (Come Ride With Me - 10CD Deluxe Edition, FLAC)\Disc 4 - The Early Cassettes (5 & 6)\30 The Triffids - The Early Cassettes (5-6) - Lanally.wav

Peak level 92.2 % Extraction speed 4.7 X Track quality 99.9 % Test CRC 069185D8 Copy CRC 069185D8 Accurately ripped (confidence 4) [E911BC65] Copy OK

All tracks accurately ripped

No errors occurred

End of status report

==== Log checksum 0F3E27E9E92B36DFF3005B9D3F5A8C273429663506869696BEAE7455076DB5CD ====
Exact Audio Copy V1.0 beta 1 from 15. November 2010

EAC extraction logfile from 15. January 2011, 10:53

The Triffids / Grandson Of Dungeon Tape

Used drive : HL-DT-STDVD+-RW GSA-T11N Adapter: 1 ID: 0

Read mode : SecureUtilize accurate stream : YesDefeat audio cache : YesMake use of C2 pointers : No

Read offset correction : 667Overread into Lead-In and Lead-Out : NoFill up missing offset samples with silence : YesDelete leading and trailing silent blocks : NoNull samples used in CRC calculations : NoUsed interface : Native Win32 interface for Win NT & 2000Gap handling : Appended to previous track

Used output format : User Defined EncoderSelected bitrate : 1024 kBit/sQuality : HighAdd ID3 tag : NoCommand line compressor : C:\Program Files\EAC\FLAC\FLAC.EXEAdditional command line options : -8 -V -T "ARTIST=%a" -T "TITLE=%t" -T "ALBUM=%g" -T "DATE=%y" -T "TRACKNUMBER=%n" -T "GENRE=%m" -T "COMMENT=%e" %j--picture="%i"%j %s -o %d

TOC of the extracted CD

Track | Start | Length | Start sector | End sector --------------------------------------------------------- 1 | 0:00.00 | 3:47.39 | 0 | 17063 2 | 3:47.39 | 2:31.00 | 17064 | 28388 3 | 6:18.39 | 2:48.14 | 28389 | 41002 4 | 9:06.53 | 3:05.06 | 41003 | 54883 5 | 12:11.59 | 0:07.56 | 54884 | 55464 6 | 12:19.40 | 3:40.51 | 55465 | 72015 7 | 16:00.16 | 2:34.72 | 72016 | 83637 8 | 18:35.13 | 3:56.25 | 83638 | 101362 9 | 22:31.38 | 2:21.32 | 101363 | 111969 10 | 24:52.70 | 2:42.61 | 111970 | 124180 11 | 27:35.56 | 3:45.61 | 124181 | 141116 12 | 31:21.42 | 0:21.08 | 141117 | 142699 13 | 31:42.50 | 4:25.18 | 142700 | 162592 14 | 36:07.68 | 2:26.58 | 162593 | 173600 15 | 38:34.51 | 2:23.41 | 173601 | 184366 16 | 40:58.17 | 2:07.31 | 184367 | 193922 17 | 43:05.48 | 2:24.11 | 193923 | 204733 18 | 45:29.59 | 2:45.73 | 204734 | 217181 19 | 48:15.57 | 4:06.05 | 217182 | 235636 20 | 52:21.62 | 3:37.46 | 235637 | 251957 21 | 55:59.33 | 2:38.53 | 251958 | 263860 22 | 58:38.11 | 1:56.37 | 263861 | 272597 23 | 60:34.48 | 4:15.11 | 272598 | 291733 24 | 64:49.59 | 2:48.64 | 291734 | 304397 25 | 67:38.48 | 2:43.70 | 304398 | 316692 26 | 70:22.43 | 3:39.69 | 316693 | 333186

Track 1

Filename S:\what.cd\The Triffids - Wide Open Road (Come Ride With Me - 10CD Deluxe Edition, FLAC)\Disc 5 - The Grandson Of Dungeon Tape\01 The Triffids - Grandson Of Dungeon Tape - Too Hot To Move (Too Hot To Think).wav

Pre-gap length 0:00:02.00

Peak level 100.0 % Extraction speed 2.9 X Track quality 100.0 % Test CRC 1793386C Copy CRC 1793386C Accurately ripped (confidence 5) [82B424D6] Copy OK

Track 2

Filename S:\what.cd\The Triffids - Wide Open Road (Come Ride With Me - 10CD Deluxe Edition, FLAC)\Disc 5 - The Grandson Of Dungeon Tape\02 The Triffids - Grandson Of Dungeon Tape - MGM.wav

Peak level 100.0 % Extraction speed 2.9 X Track quality 100.0 % Test CRC 555EF674 Copy CRC 555EF674 Accurately ripped (confidence 5) [53554F50] Copy OK

Track 3

Filename S:\what.cd\The Triffids - Wide Open Road (Come Ride With Me - 10CD Deluxe Edition, FLAC)\Disc 5 - The Grandson Of Dungeon Tape\03 The Triffids - Grandson Of Dungeon Tape - Man Who Can.wav

Peak level 100.0 % Extraction speed 3.1 X Track quality 100.0 % Test CRC F47CF132 Copy CRC F47CF132 Accurately ripped (confidence 5) [2CE6111B] Copy OK

Track 4

Filename S:\what.cd\The Triffids - Wide Open Road (Come Ride With Me - 10CD Deluxe Edition, FLAC)\Disc 5 - The Grandson Of Dungeon Tape\04 The Triffids - Grandson Of Dungeon Tape - Nothing Good Is Going To Come Of This.wav

Peak level 100.0 % Extraction speed 3.4 X Track quality 100.0 % Test CRC 1FE99119 Copy CRC 1FE99119 Accurately ripped (confidence 5) [342F7CC6] Copy OK

Track 5

Filename S:\what.cd\The Triffids - Wide Open Road (Come Ride With Me - 10CD Deluxe Edition, FLAC)\Disc 5 - The Grandson Of Dungeon Tape\05 The Triffids - Grandson Of Dungeon Tape - (Secret Message).wav

Peak level 47.6 % Extraction speed 0.6 X Track quality 100.0 % Test CRC 5EBB0C7D Copy CRC 5EBB0C7D Accurately ripped (confidence 5) [3C79C516] Copy OK

Track 6

Filename S:\what.cd\The Triffids - Wide Open Road (Come Ride With Me - 10CD Deluxe Edition, FLAC)\Disc 5 - The Grandson Of Dungeon Tape\06 The Triffids - Grandson Of Dungeon Tape - Family Name.wav

Peak level 100.0 % Extraction speed 3.7 X Track quality 100.0 % Test CRC D75CF907 Copy CRC D75CF907 Accurately ripped (confidence 5) [97B55829] Copy OK

Track 7

Filename S:\what.cd\The Triffids - Wide Open Road (Come Ride With Me - 10CD Deluxe Edition, FLAC)\Disc 5 - The Grandson Of Dungeon Tape\07 The Triffids - Grandson Of Dungeon Tape - Madeline.wav

Peak level 100.0 % Extraction speed 3.6 X Track quality 100.0 % Test CRC B912F7F5 Copy CRC B912F7F5 Accurately ripped (confidence 5) [E8EDE598] Copy OK

Track 8

Filename S:\what.cd\The Triffids - Wide Open Road (Come Ride With Me - 10CD Deluxe Edition, FLAC)\Disc 5 - The Grandson Of Dungeon Tape\08 The Triffids - Grandson Of Dungeon Tape - Twisted Brain.wav

Peak level 100.0 % Extraction speed 4.1 X Track quality 100.0 % Test CRC 96445FC2 Copy CRC 96445FC2 Accurately ripped (confidence 5) [358A410B] Copy OK

Track 9

Filename S:\what.cd\The Triffids - Wide Open Road (Come Ride With Me - 10CD Deluxe Edition, FLAC)\Disc 5 - The Grandson Of Dungeon Tape\09 The Triffids - Grandson Of Dungeon Tape - Chew It Up.wav

Peak level 100.0 % Extraction speed 3.0 X Track quality 99.9 % Test CRC 7588B62A Copy CRC 7588B62A Accurately ripped (confidence 5) [D91300CB] Copy OK

Track 10

Filename S:\what.cd\The Triffids - Wide Open Road (Come Ride With Me - 10CD Deluxe Edition, FLAC)\Disc 5 - The Grandson Of Dungeon Tape\10 The Triffids - Grandson Of Dungeon Tape - Work For Nothing.wav

Peak level 98.8 % Extraction speed 4.2 X Track quality 100.0 % Test CRC ADACC00A Copy CRC ADACC00A Accurately ripped (confidence 5) [F9C4E2C4] Copy OK

Track 11

Filename S:\what.cd\The Triffids - Wide Open Road (Come Ride With Me - 10CD Deluxe Edition, FLAC)\Disc 5 - The Grandson Of Dungeon Tape\11 The Triffids - Grandson Of Dungeon Tape - Happy Boy.wav

Peak level 100.0 % Extraction speed 3.7 X Track quality 99.9 % Test CRC CCDCCD88 Copy CRC CCDCCD88 Accurately ripped (confidence 5) [34C91CD0] Copy OK

Track 12

Filename S:\what.cd\The Triffids - Wide Open Road (Come Ride With Me - 10CD Deluxe Edition, FLAC)\Disc 5 - The Grandson Of Dungeon Tape\12 The Triffids - Grandson Of Dungeon Tape - (Instructions).wav

Peak level 73.7 % Extraction speed 1.8 X Track quality 100.0 % Test CRC 0FA1B274 Copy CRC 0FA1B274 Accurately ripped (confidence 5) [EF07F31E] Copy OK

Track 13

Filename S:\what.cd\The Triffids - Wide Open Road (Come Ride With Me - 10CD Deluxe Edition, FLAC)\Disc 5 - The Grandson Of Dungeon Tape\13 The Triffids - Grandson Of Dungeon Tape - Dead Wind.wav

Peak level 97.7 % Extraction speed 4.9 X Track quality 100.0 % Test CRC 6BD2EC92 Copy CRC 6BD2EC92 Accurately ripped (confidence 5) [831C99D8] Copy OK

Track 14

Filename S:\what.cd\The Triffids - Wide Open Road (Come Ride With Me - 10CD Deluxe Edition, FLAC)\Disc 5 - The Grandson Of Dungeon Tape\14 The Triffids - Grandson Of Dungeon Tape - Cat On A Hot Tin Roof.wav

Peak level 100.0 % Extraction speed 3.5 X Track quality 99.9 % Test CRC 3A9AF064 Copy CRC 3A9AF064 Accurately ripped (confidence 5) [EDC039CE] Copy OK

Track 15

Filename S:\what.cd\The Triffids - Wide Open Road (Come Ride With Me - 10CD Deluxe Edition, FLAC)\Disc 5 - The Grandson Of Dungeon Tape\15 The Triffids - Grandson Of Dungeon Tape - I'll Have It.wav

Peak level 100.0 % Extraction speed 4.6 X Track quality 100.0 % Test CRC 916DF67F Copy CRC 916DF67F Accurately ripped (confidence 5) [A1969045] Copy OK

Track 16

Filename S:\what.cd\The Triffids - Wide Open Road (Come Ride With Me - 10CD Deluxe Edition, FLAC)\Disc 5 - The Grandson Of Dungeon Tape\16 The Triffids - Grandson Of Dungeon Tape - Spanish Blue.wav

Peak level 100.0 % Extraction speed 4.5 X Track quality 100.0 % Test CRC 6FF23FF9 Copy CRC 6FF23FF9 Accurately ripped (confidence 5) [830BA360] Copy OK

Track 17

Filename S:\what.cd\The Triffids - Wide Open Road (Come Ride With Me - 10CD Deluxe Edition, FLAC)\Disc 5 - The Grandson Of Dungeon Tape\17 The Triffids - Grandson Of Dungeon Tape - You Can Keep It.wav

Peak level 100.0 % Extraction speed 4.7 X Track quality 100.0 % Test CRC 631F401B Copy CRC 631F401B Accurately ripped (confidence 5) [38B0F2CA] Copy OK

Track 18

Filename S:\what.cd\The Triffids - Wide Open Road (Come Ride With Me - 10CD Deluxe Edition, FLAC)\Disc 5 - The Grandson Of Dungeon Tape\18 The Triffids - Grandson Of Dungeon Tape - Bad Timing.wav

Pre-gap length 0:00:01.52

Peak level 100.0 % Extraction speed 4.9 X Track quality 100.0 % Test CRC 9ECEB046 Copy CRC 9ECEB046 Accurately ripped (confidence 5) [D8BD06F6] Copy OK

Track 19

Filename S:\what.cd\The Triffids - Wide Open Road (Come Ride With Me - 10CD Deluxe Edition, FLAC)\Disc 5 - The Grandson Of Dungeon Tape\19 The Triffids - Grandson Of Dungeon Tape - I Can't Wait To See Your Gun.wav

Pre-gap length 0:00:00.39

Peak level 92.2 % Extraction speed 4.6 X Track quality 99.9 % Test CRC 5FB50D4B Copy CRC 5FB50D4B Accurately ripped (confidence 5) [E65E3CBA] Copy OK

Track 20

Filename S:\what.cd\The Triffids - Wide Open Road (Come Ride With Me - 10CD Deluxe Edition, FLAC)\Disc 5 - The Grandson Of Dungeon Tape\20 The Triffids - Grandson Of Dungeon Tape - Hours At A Time.wav

Peak level 95.5 % Extraction speed 5.6 X Track quality 100.0 % Test CRC 8691F683 Copy CRC 8691F683 Accurately ripped (confidence 5) [2E4D24B4] Copy OK

Track 21

Filename S:\what.cd\The Triffids - Wide Open Road (Come Ride With Me - 10CD Deluxe Edition, FLAC)\Disc 5 - The Grandson Of Dungeon Tape\21 The Triffids - Grandson Of Dungeon Tape - Son Of Reverie.wav

Peak level 86.6 % Extraction speed 4.2 X Track quality 99.9 % Test CRC CFED4284 Copy CRC CFED4284 Accurately ripped (confidence 5) [C40D982E] Copy OK

Track 22

Filename S:\what.cd\The Triffids - Wide Open Road (Come Ride With Me - 10CD Deluxe Edition, FLAC)\Disc 5 - The Grandson Of Dungeon Tape\22 The Triffids - Grandson Of Dungeon Tape - Son Of Stand Up.wav

Peak level 100.0 % Extraction speed 4.9 X Track quality 100.0 % Test CRC 50785AB9 Copy CRC 50785AB9 Accurately ripped (confidence 5) [9E87B0BB] Copy OK

Track 23

Filename S:\what.cd\The Triffids - Wide Open Road (Come Ride With Me - 10CD Deluxe Edition, FLAC)\Disc 5 - The Grandson Of Dungeon Tape\23 The Triffids - Grandson Of Dungeon Tape - Red Pony.wav

Pre-gap length 0:00:00.71

Peak level 98.8 % Extraction speed 6.0 X Track quality 100.0 % Test CRC 3380133D Copy CRC 3380133D Accurately ripped (confidence 5) [985D9C2E] Copy OK

Track 24

Filename S:\what.cd\The Triffids - Wide Open Road (Come Ride With Me - 10CD Deluxe Edition, FLAC)\Disc 5 - The Grandson Of Dungeon Tape\24 The Triffids - Grandson Of Dungeon Tape - Plaything.wav

Peak level 100.0 % Extraction speed 5.6 X Track quality 100.0 % Test CRC 1BBAF0EC Copy CRC 1BBAF0EC Accurately ripped (confidence 5) [AAAD1F43] Copy OK

Track 25

Filename S:\what.cd\The Triffids - Wide Open Road (Come Ride With Me - 10CD Deluxe Edition, FLAC)\Disc 5 - The Grandson Of Dungeon Tape\25 The Triffids - Grandson Of Dungeon Tape - Nothing Can Take Your Place.wav

Peak level 98.8 % Extraction speed 5.6 X Track quality 100.0 % Test CRC 9FF21D0B Copy CRC 9FF21D0B Accurately ripped (confidence 5) [7522E521] Copy OK

Track 26

Filename S:\what.cd\The Triffids - Wide Open Road (Come Ride With Me - 10CD Deluxe Edition, FLAC)\Disc 5 - The Grandson Of Dungeon Tape\26 The Triffids - Grandson Of Dungeon Tape - (Interview).wav

Peak level 40.9 % Extraction speed 6.2 X Track quality 100.0 % Test CRC 4CED0246 Copy CRC 4CED0246 Accurately ripped (confidence 5) [84D28F30] Copy OK

All tracks accurately ripped

No errors occurred

End of status report

==== Log checksum 41CE2812DC7F1E7004DA9BD0659143DCD2507AB4B9FFAD840445B09345CD5BF9 ====
Exact Audio Copy V1.0 beta 1 from 15. November 2010

EAC extraction logfile from 15. January 2011, 18:48

The Triffids / Live To Air On 3PBS 16th April 1984

Used drive : HL-DT-STDVD+-RW GSA-T11N Adapter: 1 ID: 0

Read mode : SecureUtilize accurate stream : YesDefeat audio cache : YesMake use of C2 pointers : No

Read offset correction : 667Overread into Lead-In and Lead-Out : NoFill up missing offset samples with silence : YesDelete leading and trailing silent blocks : NoNull samples used in CRC calculations : NoUsed interface : Native Win32 interface for Win NT & 2000Gap handling : Appended to previous track

Used output format : User Defined EncoderSelected bitrate : 1024 kBit/sQuality : HighAdd ID3 tag : NoCommand line compressor : C:\Program Files\EAC\FLAC\FLAC.EXEAdditional command line options : -8 -V -T "ARTIST=%a" -T "TITLE=%t" -T "ALBUM=%g" -T "DATE=%y" -T "TRACKNUMBER=%n" -T "GENRE=%m" -T "COMMENT=%e" %j--picture="%i"%j %s -o %d

TOC of the extracted CD

Track | Start | Length | Start sector | End sector --------------------------------------------------------- 1 | 0:00.00 | 2:19.28 | 0 | 10452 2 | 2:19.28 | 2:56.43 | 10453 | 23695 3 | 5:15.71 | 2:34.59 | 23696 | 35304 4 | 7:50.55 | 4:08.33 | 35305 | 53937 5 | 11:59.13 | 2:48.42 | 53938 | 66579 6 | 14:47.55 | 2:29.12 | 66580 | 77766 7 | 17:16.67 | 3:46.55 | 77767 | 94771 8 | 21:03.47 | 3:29.21 | 94772 | 110467 9 | 24:32.68 | 2:31.04 | 110468 | 121796 10 | 27:03.72 | 3:43.72 | 121797 | 138593 11 | 30:47.69 | 3:56.39 | 138594 | 156332 12 | 34:44.33 | 3:31.17 | 156333 | 172174 13 | 38:15.50 | 2:31.25 | 172175 | 183524 14 | 40:47.00 | 1:58.45 | 183525 | 192419 15 | 42:45.45 | 2:58.72 | 192420 | 205841 16 | 45:44.42 | 2:35.71 | 205842 | 217537

Track 1

Filename S:\what.cd\The Triffids - Wide Open Road (Come Ride With Me - 10CD Deluxe Edition, FLAC)\Disc 6 - Live To Air On 3PBS\01 The Triffids - Live To Air On 3PBS 16th April 1984 - Cahoun Surf.wav

Pre-gap length 0:00:02.00

Peak level 100.0 % Extraction speed 2.6 X Track quality 100.0 % Test CRC 0F501844 Copy CRC 0F501844 Accurately ripped (confidence 5) [890223CD] Copy OK

Track 2

Filename S:\what.cd\The Triffids - Wide Open Road (Come Ride With Me - 10CD Deluxe Edition, FLAC)\Disc 6 - Live To Air On 3PBS\02 The Triffids - Live To Air On 3PBS 16th April 1984 - This Boy.wav

Peak level 100.0 % Extraction speed 2.9 X Track quality 100.0 % Test CRC 53947023 Copy CRC 53947023 Accurately ripped (confidence 5) [6E701D85] Copy OK

Track 3

Filename S:\what.cd\The Triffids - Wide Open Road (Come Ride With Me - 10CD Deluxe Edition, FLAC)\Disc 6 - Live To Air On 3PBS\03 The Triffids - Live To Air On 3PBS 16th April 1984 - Everybody Has To Eat.wav

Peak level 100.0 % Extraction speed 3.1 X Track quality 100.0 % Test CRC BC9A5474 Copy CRC BC9A5474 Accurately ripped (confidence 5) [3A1676D9] Copy OK

Track 4

Filename S:\what.cd\The Triffids - Wide Open Road (Come Ride With Me - 10CD Deluxe Edition, FLAC)\Disc 6 - Live To Air On 3PBS\04 The Triffids - Live To Air On 3PBS 16th April 1984 - Embedded.wav

Peak level 100.0 % Extraction speed 3.7 X Track quality 100.0 % Test CRC 110A9608 Copy CRC 110A9608 Accurately ripped (confidence 5) [9C92A609] Copy OK

Track 5

Filename S:\what.cd\The Triffids - Wide Open Road (Come Ride With Me - 10CD Deluxe Edition, FLAC)\Disc 6 - Live To Air On 3PBS\05 The Triffids - Live To Air On 3PBS 16th April 1984 - Personal Things.wav

Peak level 100.0 % Extraction speed 3.6 X Track quality 100.0 % Test CRC F048A220 Copy CRC F048A220 Accurately ripped (confidence 5) [4BAEA8B8] Copy OK

Track 6

Filename S:\what.cd\The Triffids - Wide Open Road (Come Ride With Me - 10CD Deluxe Edition, FLAC)\Disc 6 - Live To Air On 3PBS\06 The Triffids - Live To Air On 3PBS 16th April 1984 - Mercy.wav

Peak level 100.0 % Extraction speed 3.7 X Track quality 100.0 % Test CRC 943BBA08 Copy CRC 943BBA08 Accurately ripped (confidence 5) [927B161F] Copy OK

Track 7

Filename S:\what.cd\The Triffids - Wide Open Road (Come Ride With Me - 10CD Deluxe Edition, FLAC)\Disc 6 - Live To Air On 3PBS\07 The Triffids - Live To Air On 3PBS 16th April 1984 - Pleasure Slide.wav

Peak level 100.0 % Extraction speed 4.2 X Track quality 100.0 % Test CRC 7C7E8648 Copy CRC 7C7E8648 Accurately ripped (confidence 5) [CF3992B6] Copy OK

Track 8

Filename S:\what.cd\The Triffids - Wide Open Road (Come Ride With Me - 10CD Deluxe Edition, FLAC)\Disc 6 - Live To Air On 3PBS\08 The Triffids - Live To Air On 3PBS 16th April 1984 - Monkey On My Back.wav

Peak level 100.0 % Extraction speed 4.4 X Track quality 100.0 % Test CRC 1D3B519C Copy CRC 1D3B519C Accurately ripped (confidence 5) [44E6DBE8] Copy OK

Track 9

Filename S:\what.cd\The Triffids - Wide Open Road (Come Ride With Me - 10CD Deluxe Edition, FLAC)\Disc 6 - Live To Air On 3PBS\09 The Triffids - Live To Air On 3PBS 16th April 1984 - Field Of Glass.wav

Peak level 100.0 % Extraction speed 4.2 X Track quality 100.0 % Test CRC 4483FA5A Copy CRC 4483FA5A Accurately ripped (confidence 5) [1C486B43] Copy OK

Track 10

Filename S:\what.cd\The Triffids - Wide Open Road (Come Ride With Me - 10CD Deluxe Edition, FLAC)\Disc 6 - Live To Air On 3PBS\10 The Triffids - Live To Air On 3PBS 16th April 1984 - Native Bride.wav

Peak level 100.0 % Extraction speed 4.7 X Track quality 100.0 % Test CRC BC9B54A7 Copy CRC BC9B54A7 Accurately ripped (confidence 5) [4720EB17] Copy OK

Track 11

Filename S:\what.cd\The Triffids - Wide Open Road (Come Ride With Me - 10CD Deluxe Edition, FLAC)\Disc 6 - Live To Air On 3PBS\11 The Triffids - Live To Air On 3PBS 16th April 1984 - Dear Miss Lonely Hearts.wav

Peak level 100.0 % Extraction speed 5.0 X Track quality 100.0 % Test CRC 8328AC87 Copy CRC 8328AC87 Accurately ripped (confidence 5) [5B1F0640] Copy OK

Track 12

Filename S:\what.cd\The Triffids - Wide Open Road (Come Ride With Me - 10CD Deluxe Edition, FLAC)\Disc 6 - Live To Air On 3PBS\12 The Triffids - Live To Air On 3PBS 16th April 1984 - Jesus Calling.wav

Peak level 100.0 % Extraction speed 5.1 X Track quality 100.0 % Test CRC 95D0D55E Copy CRC 95D0D55E Accurately ripped (confidence 5) [85C82C6C] Copy OK

Track 13

Filename S:\what.cd\The Triffids - Wide Open Road (Come Ride With Me - 10CD Deluxe Edition, FLAC)\Disc 6 - Live To Air On 3PBS\13 The Triffids - Live To Air On 3PBS 16th April 1984 - Satisfied Mind.wav

Peak level 100.0 % Extraction speed 4.8 X Track quality 100.0 % Test CRC E3086844 Copy CRC E3086844 Accurately ripped (confidence 5) [970B8760] Copy OK

Track 14

Filename S:\what.cd\The Triffids - Wide Open Road (Come Ride With Me - 10CD Deluxe Edition, FLAC)\Disc 6 - Live To Air On 3PBS\14 The Triffids - Live To Air On 3PBS 16th April 1984 - Jack Frost.wav

Peak level 100.0 % Extraction speed 4.8 X Track quality 100.0 % Test CRC 692EA289 Copy CRC 692EA289 Accurately ripped (confidence 5) [CE4770B4] Copy OK

Track 15

Filename S:\what.cd\The Triffids - Wide Open Road (Come Ride With Me - 10CD Deluxe Edition, FLAC)\Disc 6 - Live To Air On 3PBS\15 The Triffids - Live To Air On 3PBS 16th April 1984 - Ain't No Sunshine.wav

Peak level 100.0 % Extraction speed 4.2 X Track quality 99.9 % Test CRC 46634606 Copy CRC 46634606 Accurately ripped (confidence 5) [3D3AB508] Copy OK

Track 16

Filename S:\what.cd\The Triffids - Wide Open Road (Come Ride With Me - 10CD Deluxe Edition, FLAC)\Disc 6 - Live To Air On 3PBS\16 The Triffids - Live To Air On 3PBS 16th April 1984 - Property Is Condemned.wav

Peak level 100.0 % Extraction speed 5.3 X Track quality 100.0 % Test CRC D9F1E5E6 Copy CRC D9F1E5E6 Accurately ripped (confidence 5) [9B47446E] Copy OK

All tracks accurately ripped

No errors occurred

End of status report

==== Log checksum ABFBAA20135714C0B98EC6A3909B3E5005710500694236F2BC64FD3E635A8123 ====
Exact Audio Copy V1.0 beta 1 from 15. November 2010

EAC extraction logfile from 16. January 2011, 1:23

The Triffids / Live At The London School Of Economics (27th October 1984)

Used drive : HL-DT-STDVD+-RW GSA-T11N Adapter: 1 ID: 0

Read mode : SecureUtilize accurate stream : YesDefeat audio cache : YesMake use of C2 pointers : No

Read offset correction : 667Overread into Lead-In and Lead-Out : NoFill up missing offset samples with silence : YesDelete leading and trailing silent blocks : NoNull samples used in CRC calculations : NoUsed interface : Native Win32 interface for Win NT & 2000Gap handling : Appended to previous track

Used output format : User Defined EncoderSelected bitrate : 1024 kBit/sQuality : HighAdd ID3 tag : NoCommand line compressor : C:\Program Files\EAC\FLAC\FLAC.EXEAdditional command line options : -8 -V -T "ARTIST=%a" -T "TITLE=%t" -T "ALBUM=%g" -T "DATE=%y" -T "TRACKNUMBER=%n" -T "GENRE=%m" -T "COMMENT=%e" %j--picture="%i"%j %s -o %d

TOC of the extracted CD

Track | Start | Length | Start sector | End sector --------------------------------------------------------- 1 | 0:00.00 | 1:57.23 | 0 | 8797 2 | 1:57.23 | 3:48.33 | 8798 | 25930 3 | 5:45.56 | 4:33.21 | 25931 | 46426 4 | 10:19.02 | 3:23.04 | 46427 | 61655 5 | 13:42.06 | 4:37.11 | 61656 | 82441 6 | 18:19.17 | 4:18.41 | 82442 | 101832 7 | 22:37.58 | 3:33.03 | 101833 | 117810 8 | 26:10.61 | 2:48.52 | 117811 | 130462 9 | 28:59.38 | 3:19.18 | 130463 | 145405 10 | 32:18.56 | 3:59.48 | 145406 | 163378 11 | 36:18.29 | 9:21.44 | 163379 | 205497 12 | 45:39.73 | 3:58.68 | 205498 | 223415

Track 1

Filename S:\what.cd\The Triffids - Wide Open Road (Come Ride With Me - 10CD Deluxe Edition, FLAC)\Disc 7 - Live At The London School Of Economics\01 The Triffids - Live At The London School Of Economics (27th October 1984) - Lonesome Hobo.wav

Pre-gap length 0:00:02.00

Peak level 100.0 % Extraction speed 2.5 X Track quality 100.0 % Test CRC F64251C6 Copy CRC F64251C6 Accurately ripped (confidence 5) [1337D6EB] Copy OK

Track 2

Filename S:\what.cd\The Triffids - Wide Open Road (Come Ride With Me - 10CD Deluxe Edition, FLAC)\Disc 7 - Live At The London School Of Economics\02 The Triffids - Live At The London School Of Economics (27th October 1984) - Bright Lights Big City.wav

Peak level 100.0 % Extraction speed 2.6 X Track quality 99.9 % Test CRC 3146AB5B Copy CRC 3146AB5B Accurately ripped (confidence 5) [E1764512] Copy OK

Track 3

Filename S:\what.cd\The Triffids - Wide Open Road (Come Ride With Me - 10CD Deluxe Edition, FLAC)\Disc 7 - Live At The London School Of Economics\03 The Triffids - Live At The London School Of Economics (27th October 1984) - Hell Of A Summer.wav

Peak level 100.0 % Extraction speed 3.0 X Track quality 99.9 % Test CRC 4BCB1D6D Copy CRC 4BCB1D6D Accurately ripped (confidence 5) [523BCECD] Copy OK

Track 4

Filename S:\what.cd\The Triffids - Wide Open Road (Come Ride With Me - 10CD Deluxe Edition, FLAC)\Disc 7 - Live At The London School Of Economics\04 The Triffids - Live At The London School Of Economics (27th October 1984) - My Baby Thinks She's A Trai

Peak level 100.0 % Extraction speed 3.6 X Track quality 100.0 % Test CRC 7BDCC09B Copy CRC 7BDCC09B Accurately ripped (confidence 5) [B52A98A3] Copy OK

Track 5

Filename S:\what.cd\The Triffids - Wide Open Road (Come Ride With Me - 10CD Deluxe Edition, FLAC)\Disc 7 - Live At The London School Of Economics\05 The Triffids - Live At The London School Of Economics (27th October 1984) - Jesus Calling.wav

Peak level 100.0 % Extraction speed 4.1 X Track quality 100.0 % Test CRC 9997A632 Copy CRC 9997A632 Accurately ripped (confidence 5) [5E7240DD] Copy OK

Track 6

Filename S:\what.cd\The Triffids - Wide Open Road (Come Ride With Me - 10CD Deluxe Edition, FLAC)\Disc 7 - Live At The London School Of Economics\06 The Triffids - Live At The London School Of Economics (27th October 1984) - Red Pony.wav

Peak level 100.0 % Extraction speed 4.3 X Track quality 100.0 % Test CRC 1073BA27 Copy CRC 1073BA27 Accurately ripped (confidence 5) [FD39E47F] Copy OK

Track 7

Filename S:\what.cd\The Triffids - Wide Open Road (Come Ride With Me - 10CD Deluxe Edition, FLAC)\Disc 7 - Live At The London School Of Economics\07 The Triffids - Live At The London School Of Economics (27th October 1984) - Beautiful Waste.wav

Peak level 100.0 % Extraction speed 4.4 X Track quality 100.0 % Test CRC 082A0250 Copy CRC 082A0250 Accurately ripped (confidence 5) [808B8CB4] Copy OK

Track 8

Filename S:\what.cd\The Triffids - Wide Open Road (Come Ride With Me - 10CD Deluxe Edition, FLAC)\Disc 7 - Live At The London School Of Economics\08 The Triffids - Live At The London School Of Economics (27th October 1984) - Raining Pleasure.wav

Peak level 100.0 % Extraction speed 3.5 X Track quality 99.9 % Test CRC A062C3EA Copy CRC A062C3EA Accurately ripped (confidence 5) [2DA75AD1] Copy OK

Track 9

Filename S:\what.cd\The Triffids - Wide Open Road (Come Ride With Me - 10CD Deluxe Edition, FLAC)\Disc 7 - Live At The London School Of Economics\09 The Triffids - Live At The London School Of Economics (27th October 1984) - Property Is Condemned.wav

Peak level 100.0 % Extraction speed 3.8 X Track quality 99.9 % Test CRC 11206107 Copy CRC 11206107 Accurately ripped (confidence 5) [49137DAA] Copy OK

Track 10

Filename S:\what.cd\The Triffids - Wide Open Road (Come Ride With Me - 10CD Deluxe Edition, FLAC)\Disc 7 - Live At The London School Of Economics\10 The Triffids - Live At The London School Of Economics (27th October 1984) - Monkey On My Back.wav

Peak level 100.0 % Extraction speed 5.0 X Track quality 100.0 % Test CRC 781F2316 Copy CRC 781F2316 Accurately ripped (confidence 5) [7B7846B1] Copy OK

Track 11

Filename S:\what.cd\The Triffids - Wide Open Road (Come Ride With Me - 10CD Deluxe Edition, FLAC)\Disc 7 - Live At The London School Of Economics\11 The Triffids - Live At The London School Of Economics (27th October 1984) - Field Of Glass.wav

Peak level 100.0 % Extraction speed 5.9 X Track quality 100.0 % Test CRC C848C3C2 Copy CRC C848C3C2 Accurately ripped (confidence 5) [103B5EF9] Copy OK

Track 12

Filename S:\what.cd\The Triffids - Wide Open Road (Come Ride With Me - 10CD Deluxe Edition, FLAC)\Disc 7 - Live At The London School Of Economics\12 The Triffids - Live At The London School Of Economics (27th October 1984) - I Can't Help Falling In Lov

Pre-gap length 0:00:00.12

Peak level 100.0 % Extraction speed 5.6 X Track quality 100.0 % Test CRC DE1DA087 Copy CRC DE1DA087 Accurately ripped (confidence 5) [1EDC3282] Copy OK

All tracks accurately ripped

No errors occurred

End of status report

==== Log checksum 46430C0041F376D75AECFBAD1199E5700053DC1A17D9C302B1D2C6033AF3AE35 ====
Exact Audio Copy V1.0 beta 1 from 15. November 2010

EAC extraction logfile from 15. January 2011, 19:36

The Triffids / Live At Melbourne University 27th March 1988

Used drive : HL-DT-STDVD+-RW GSA-T11N Adapter: 1 ID: 0

Read mode : SecureUtilize accurate stream : YesDefeat audio cache : YesMake use of C2 pointers : No

Read offset correction : 667Overread into Lead-In and Lead-Out : NoFill up missing offset samples with silence : YesDelete leading and trailing silent blocks : NoNull samples used in CRC calculations : NoUsed interface : Native Win32 interface for Win NT & 2000Gap handling : Appended to previous track

Used output format : User Defined EncoderSelected bitrate : 1024 kBit/sQuality : HighAdd ID3 tag : NoCommand line compressor : C:\Program Files\EAC\FLAC\FLAC.EXEAdditional command line options : -8 -V -T "ARTIST=%a" -T "TITLE=%t" -T "ALBUM=%g" -T "DATE=%y" -T "TRACKNUMBER=%n" -T "GENRE=%m" -T "COMMENT=%e" %j--picture="%i"%j %s -o %d

TOC of the extracted CD

Track | Start | Length | Start sector | End sector --------------------------------------------------------- 1 | 0:00.00 | 4:31.36 | 0 | 20360 2 | 4:31.36 | 6:00.09 | 20361 | 47369 3 | 10:31.45 | 3:38.40 | 47370 | 63759 4 | 14:10.10 | 5:25.08 | 63760 | 88142 5 | 19:35.18 | 4:06.27 | 88143 | 106619 6 | 23:41.45 | 3:46.54 | 106620 | 123623 7 | 27:28.24 | 4:44.41 | 123624 | 144964 8 | 32:12.65 | 3:22.03 | 144965 | 160117 9 | 35:34.68 | 4:13.35 | 160118 | 179127 10 | 39:48.28 | 3:13.25 | 179128 | 193627 11 | 43:01.53 | 4:42.72 | 193628 | 214849 12 | 47:44.50 | 2:51.07 | 214850 | 227681 13 | 50:35.57 | 7:34.34 | 227682 | 261765 14 | 58:10.16 | 5:13.49 | 261766 | 285289 15 | 63:23.65 | 4:18.21 | 285290 | 304660 16 | 67:42.11 | 5:01.68 | 304661 | 327303 17 | 72:44.04 | 3:48.35 | 327304 | 344438

Track 1

Filename S:\what.cd\The Triffids - Wide Open Road (Come Ride With Me - 10CD Deluxe Edition, FLAC)\Disc 8 - Live At Melbourne University\01 The Triffids - Live At Melbourne University 27th March 1988 - Wide Open Road.wav

Pre-gap length 0:00:02.00

Peak level 100.0 % Extraction speed 3.0 X Track quality 100.0 % Test CRC 60226443 Copy CRC 60226443 Accurately ripped (confidence 5) [2F1870C7] Copy OK

Track 2

Filename S:\what.cd\The Triffids - Wide Open Road (Come Ride With Me - 10CD Deluxe Edition, FLAC)\Disc 8 - Live At Melbourne University\02 The Triffids - Live At Melbourne University 27th March 1988 - Lonely Stretch.wav

Peak level 100.0 % Extraction speed 3.5 X Track quality 100.0 % Test CRC 944256B4 Copy CRC 944256B4 Accurately ripped (confidence 5) [1FB3771A] Copy OK

Track 3

Filename S:\what.cd\The Triffids - Wide Open Road (Come Ride With Me - 10CD Deluxe Edition, FLAC)\Disc 8 - Live At Melbourne University\03 The Triffids - Live At Melbourne University 27th March 1988 - Property Is Condemned.wav

Peak level 100.0 % Extraction speed 3.6 X Track quality 100.0 % Test CRC 231ACF8D Copy CRC 231ACF8D Accurately ripped (confidence 5) [F71799F4] Copy OK

Track 4

Filename S:\what.cd\The Triffids - Wide Open Road (Come Ride With Me - 10CD Deluxe Edition, FLAC)\Disc 8 - Live At Melbourne University\04 The Triffids - Live At Melbourne University 27th March 1988 - Jerdacuttup Man.wav

Peak level 100.0 % Extraction speed 3.5 X Track quality 99.9 % Test CRC 2CDED768 Copy CRC 2CDED768 Accurately ripped (confidence 5) [0EFBD155] Copy OK

Track 5

Filename S:\what.cd\The Triffids - Wide Open Road (Come Ride With Me - 10CD Deluxe Edition, FLAC)\Disc 8 - Live At Melbourne University\05 The Triffids - Live At Melbourne University 27th March 1988 - A Trick Of The Light.wav

Peak level 100.0 % Extraction speed 3.4 X Track quality 99.9 % Test CRC 1EA688D8 Copy CRC 1EA688D8 Accurately ripped (confidence 5) [1F09E73A] Copy OK

Track 6

Filename S:\what.cd\The Triffids - Wide Open Road (Come Ride With Me - 10CD Deluxe Edition, FLAC)\Disc 8 - Live At Melbourne University\06 The Triffids - Live At Melbourne University 27th March 1988 - Holy Water.wav

Peak level 100.0 % Extraction speed 3.5 X Track quality 100.0 % Test CRC 1244BC08 Copy CRC 1244BC08 Accurately ripped (confidence 5) [CD311D12] Copy OK

Track 7

Filename S:\what.cd\The Triffids - Wide Open Road (Come Ride With Me - 10CD Deluxe Edition, FLAC)\Disc 8 - Live At Melbourne University\07 The Triffids - Live At Melbourne University 27th March 1988 - Kelly's Blues.wav

Peak level 100.0 % Extraction speed 4.7 X Track quality 100.0 % Test CRC 3A20876B Copy CRC 3A20876B Accurately ripped (confidence 5) [BE1AA9ED] Copy OK

Track 8

Filename S:\what.cd\The Triffids - Wide Open Road (Come Ride With Me - 10CD Deluxe Edition, FLAC)\Disc 8 - Live At Melbourne University\08 The Triffids - Live At Melbourne University 27th March 1988 - Better Off This Way.wav

Peak level 100.0 % Extraction speed 4.7 X Track quality 100.0 % Test CRC 72A67635 Copy CRC 72A67635 Accurately ripped (confidence 5) [ADA73686] Copy OK

Track 9

Filename S:\what.cd\The Triffids - Wide Open Road (Come Ride With Me - 10CD Deluxe Edition, FLAC)\Disc 8 - Live At Melbourne University\09 The Triffids - Live At Melbourne University 27th March 1988 - Bury Me Deep In Love.wav

Peak level 100.0 % Extraction speed 5.0 X Track quality 100.0 % Test CRC 034D2F99 Copy CRC 034D2F99 Accurately ripped (confidence 5) [E823799E] Copy OK

Track 10

Filename S:\what.cd\The Triffids - Wide Open Road (Come Ride With Me - 10CD Deluxe Edition, FLAC)\Disc 8 - Live At Melbourne University\10 The Triffids - Live At Melbourne University 27th March 1988 - Raining Pleasure.wav

Peak level 100.0 % Extraction speed 5.0 X Track quality 100.0 % Test CRC 3DB68FC0 Copy CRC 3DB68FC0 Accurately ripped (confidence 5) [99F61CAB] Copy OK

Track 11

Filename S:\what.cd\The Triffids - Wide Open Road (Come Ride With Me - 10CD Deluxe Edition, FLAC)\Disc 8 - Live At Melbourne University\11 The Triffids - Live At Melbourne University 27th March 1988 - Red Pony.wav

Peak level 100.0 % Extraction speed 5.4 X Track quality 100.0 % Test CRC 163BFCC8 Copy CRC 163BFCC8 Accurately ripped (confidence 5) [AA11B825] Copy OK

Track 12

Filename S:\what.cd\The Triffids - Wide Open Road (Come Ride With Me - 10CD Deluxe Edition, FLAC)\Disc 8 - Live At Melbourne University\12 The Triffids - Live At Melbourne University 27th March 1988 - Place In The Sun.wav

Peak level 100.0 % Extraction speed 5.1 X Track quality 100.0 % Test CRC F09B17A9 Copy CRC F09B17A9 Accurately ripped (confidence 5) [A11B2C5B] Copy OK

Track 13

Filename S:\what.cd\The Triffids - Wide Open Road (Come Ride With Me - 10CD Deluxe Edition, FLAC)\Disc 8 - Live At Melbourne University\13 The Triffids - Live At Melbourne University 27th March 1988 - Field Of Glass , Lonesome Hobo.wav

Peak level 100.0 % Extraction speed 6.0 X Track quality 100.0 % Test CRC 526A2D3B Copy CRC 526A2D3B Accurately ripped (confidence 5) [55FD81A0] Copy OK

Track 14

Filename S:\what.cd\The Triffids - Wide Open Road (Come Ride With Me - 10CD Deluxe Edition, FLAC)\Disc 8 - Live At Melbourne University\14 The Triffids - Live At Melbourne University 27th March 1988 - What Goes On.wav

Peak level 100.0 % Extraction speed 6.0 X Track quality 100.0 % Test CRC E7C8F236 Copy CRC E7C8F236 Accurately ripped (confidence 5) [7E7B62E7] Copy OK

Track 15

Filename S:\what.cd\The Triffids - Wide Open Road (Come Ride With Me - 10CD Deluxe Edition, FLAC)\Disc 8 - Live At Melbourne University\15 The Triffids - Live At Melbourne University 27th March 1988 - How Could I Help But Love You.wav

Peak level 100.0 % Extraction speed 5.9 X Track quality 100.0 % Test CRC 5C236501 Copy CRC 5C236501 Accurately ripped (confidence 5) [3C6CA5B8] Copy OK

Track 16

Filename S:\what.cd\The Triffids - Wide Open Road (Come Ride With Me - 10CD Deluxe Edition, FLAC)\Disc 8 - Live At Melbourne University\16 The Triffids - Live At Melbourne University 27th March 1988 - Hell Of A Summer.wav

Peak level 100.0 % Extraction speed 6.3 X Track quality 100.0 % Test CRC BFF1D60C Copy CRC BFF1D60C Accurately ripped (confidence 5) [8B7BBE26] Copy OK

Track 17

Filename S:\what.cd\The Triffids - Wide Open Road (Come Ride With Me - 10CD Deluxe Edition, FLAC)\Disc 8 - Live At Melbourne University\17 The Triffids - Live At Melbourne University 27th March 1988 - I Can't Help Falling In Love With You.wav

Peak level 100.0 % Extraction speed 5.2 X Track quality 99.9 % Test CRC BB42C743 Copy CRC BB42C743 Accurately ripped (confidence 4) [7354C6A4] Copy OK

All tracks accurately ripped

No errors occurred

End of status report

==== Log checksum 32CF710A2776C4DC3382F99C1F4962FC0597FD5427D03FDA5E1B75692F7620E0 ====
Exact Audio Copy V1.0 beta 1 from 15. November 2010

EAC extraction logfile from 15. January 2011, 20:51

The Triffids / Jack Brabham 2010 #1

Used drive : HL-DT-STDVD+-RW GSA-T11N Adapter: 1 ID: 0

Read mode : SecureUtilize accurate stream : YesDefeat audio cache : YesMake use of C2 pointers : No

Read offset correction : 667Overread into Lead-In and Lead-Out : NoFill up missing offset samples with silence : YesDelete leading and trailing silent blocks : NoNull samples used in CRC calculations : NoUsed interface : Native Win32 interface for Win NT & 2000Gap handling : Appended to previous track

Used output format : User Defined EncoderSelected bitrate : 1024 kBit/sQuality : HighAdd ID3 tag : NoCommand line compressor : C:\Program Files\EAC\FLAC\FLAC.EXEAdditional command line options : -8 -V -T "ARTIST=%a" -T "TITLE=%t" -T "ALBUM=%g" -T "DATE=%y" -T "TRACKNUMBER=%n" -T "GENRE=%m" -T "COMMENT=%e" %j--picture="%i"%j %s -o %d

TOC of the extracted CD

Track | Start | Length | Start sector | End sector --------------------------------------------------------- 1 | 0:00.00 | 1:20.27 | 0 | 6026 2 | 1:20.27 | 3:15.01 | 6027 | 20652 3 | 4:35.28 | 3:46.48 | 20653 | 37650 4 | 8:22.01 | 2:05.22 | 37651 | 47047 5 | 10:27.23 | 2:05.16 | 47048 | 56438 6 | 12:32.39 | 3:34.35 | 56439 | 72523 7 | 16:06.74 | 4:20.51 | 72524 | 92074 8 | 20:27.50 | 3:05.50 | 92075 | 105999 9 | 23:33.25 | 2:11.51 | 106000 | 115875 10 | 25:45.01 | 3:47.00 | 115876 | 132900 11 | 29:32.01 | 2:25.45 | 132901 | 143820 12 | 31:57.46 | 2:59.09 | 143821 | 157254 13 | 34:56.55 | 0:09.13 | 157255 | 157942 14 | 35:05.68 | 2:45.53 | 157943 | 170370 15 | 37:51.46 | 4:23.48 | 170371 | 190143 16 | 42:15.19 | 3:10.06 | 190144 | 204399 17 | 45:25.25 | 2:42.11 | 204400 | 216560 18 | 48:07.36 | 4:47.07 | 216561 | 238092 19 | 52:54.43 | 3:03.13 | 238093 | 251830 20 | 55:57.56 | 3:45.49 | 251831 | 268754 21 | 59:43.30 | 3:29.12 | 268755 | 284441 22 | 63:12.42 | 3:09.39 | 284442 | 298655 23 | 66:22.06 | 3:36.47 | 298656 | 314902 24 | 69:58.53 | 5:34.53 | 314903 | 340005

Track 1

Filename S:\what.cd\The Triffids - Wide Open Road (Come Ride With Me - 10CD Deluxe Edition, FLAC)\Disc 9 - Jack Brabham 2010 #1\01 The Triffids - Jack Brabham 2010 #1 - Indiscreet Music.wav

Pre-gap length 0:00:02.00

Peak level 38.4 % Extraction speed 1.5 X Track quality 99.8 % Test CRC 72C28C4C Copy CRC 72C28C4C Accurately ripped (confidence 5) [15813E5E] Copy OK

Track 2

Filename S:\what.cd\The Triffids - Wide Open Road (Come Ride With Me - 10CD Deluxe Edition, FLAC)\Disc 9 - Jack Brabham 2010 #1\02 The Triffids - Jack Brabham 2010 #1 - Radioactivity.wav

Peak level 100.0 % Extraction speed 3.0 X Track quality 100.0 % Test CRC 62BDF937 Copy CRC 62BDF937 Accurately ripped (confidence 5) [512930B1] Copy OK

Track 3

Filename S:\what.cd\The Triffids - Wide Open Road (Come Ride With Me - 10CD Deluxe Edition, FLAC)\Disc 9 - Jack Brabham 2010 #1\03 The Triffids - Jack Brabham 2010 #1 - Family Name.wav

Peak level 100.0 % Extraction speed 3.2 X Track quality 100.0 % Test CRC AFACB9A1 Copy CRC AFACB9A1 Accurately ripped (confidence 5) [19C28AA3] Copy OK

Track 4

Filename S:\what.cd\The Triffids - Wide Open Road (Come Ride With Me - 10CD Deluxe Edition, FLAC)\Disc 9 - Jack Brabham 2010 #1\04 The Triffids - Jack Brabham 2010 #1 - Spanish Blue.wav

Peak level 100.0 % Extraction speed 3.1 X Track quality 100.0 % Test CRC EADF66B7 Copy CRC EADF66B7 Accurately ripped (confidence 5) [EBB9112F] Copy OK

Track 5

Filename S:\what.cd\The Triffids - Wide Open Road (Come Ride With Me - 10CD Deluxe Edition, FLAC)\Disc 9 - Jack Brabham 2010 #1\05 The Triffids - Jack Brabham 2010 #1 - Crucifixion Speech.wav

Peak level 95.2 % Extraction speed 2.4 X Track quality 99.9 % Test CRC 0CDC83BB Copy CRC 0CDC83BB Accurately ripped (confidence 5) [0D4BAF2A] Copy OK

Track 6

Filename S:\what.cd\The Triffids - Wide Open Road (Come Ride With Me - 10CD Deluxe Edition, FLAC)\Disc 9 - Jack Brabham 2010 #1\06 The Triffids - Jack Brabham 2010 #1 - Night Life.wav

Peak level 100.0 % Extraction speed 3.7 X Track quality 100.0 % Test CRC CADF742A Copy CRC CADF742A Accurately ripped (confidence 5) [625FB31B] Copy OK

Track 7

Filename S:\what.cd\The Triffids - Wide Open Road (Come Ride With Me - 10CD Deluxe Edition, FLAC)\Disc 9 - Jack Brabham 2010 #1\07 The Triffids - Jack Brabham 2010 #1 - Happy Boy.wav

Peak level 100.0 % Extraction speed 3.4 X Track quality 99.9 % Test CRC 8D8ACE70 Copy CRC 8D8ACE70 Accurately ripped (confidence 5) [C2B65FFE] Copy OK

Track 8

Filename S:\what.cd\The Triffids - Wide Open Road (Come Ride With Me - 10CD Deluxe Edition, FLAC)\Disc 9 - Jack Brabham 2010 #1\08 The Triffids - Jack Brabham 2010 #1 - Mother Silhouette.wav

Peak level 100.0 % Extraction speed 4.1 X Track quality 100.0 % Test CRC 7090CC8A Copy CRC 7090CC8A Accurately ripped (confidence 5) [E9FC81C8] Copy OK

Track 9

Filename S:\what.cd\The Triffids - Wide Open Road (Come Ride With Me - 10CD Deluxe Edition, FLAC)\Disc 9 - Jack Brabham 2010 #1\09 The Triffids - Jack Brabham 2010 #1 - Crucifixion Speech.wav

Peak level 100.0 % Extraction speed 3.8 X Track quality 100.0 % Test CRC 923CFB21 Copy CRC 923CFB21 Accurately ripped (confidence 5) [251F4ECE] Copy OK

Track 10

Filename S:\what.cd\The Triffids - Wide Open Road (Come Ride With Me - 10CD Deluxe Edition, FLAC)\Disc 9 - Jack Brabham 2010 #1\10 The Triffids - Jack Brabham 2010 #1 - Once A Day.wav

Peak level 80.1 % Extraction speed 4.4 X Track quality 100.0 % Test CRC 2B84B891 Copy CRC 2B84B891 Accurately ripped (confidence 5) [E362CACA] Copy OK

Track 11

Filename S:\what.cd\The Triffids - Wide Open Road (Come Ride With Me - 10CD Deluxe Edition, FLAC)\Disc 9 - Jack Brabham 2010 #1\11 The Triffids - Jack Brabham 2010 #1 - Femme Fatale.wav

Peak level 100.0 % Extraction speed 4.3 X Track quality 100.0 % Test CRC 1C6AB699 Copy CRC 1C6AB699 Accurately ripped (confidence 5) [8DA9A239] Copy OK

Track 12

Filename S:\what.cd\The Triffids - Wide Open Road (Come Ride With Me - 10CD Deluxe Edition, FLAC)\Disc 9 - Jack Brabham 2010 #1\12 The Triffids - Jack Brabham 2010 #1 - You're No Good.wav

Peak level 100.0 % Extraction speed 4.6 X Track quality 100.0 % Test CRC A68231A1 Copy CRC A68231A1 Accurately ripped (confidence 5) [A811E02B] Copy OK

Track 13

Filename S:\what.cd\The Triffids - Wide Open Road (Come Ride With Me - 10CD Deluxe Edition, FLAC)\Disc 9 - Jack Brabham 2010 #1\13 The Triffids - Jack Brabham 2010 #1 - The Dave And Ritchie Show Radio ID.wav

Peak level 71.8 % Extraction speed 0.9 X Track quality 100.0 % Test CRC 26E1F630 Copy CRC 26E1F630 Accurately ripped (confidence 5) [ED4C06A5] Copy OK

Track 14

Filename S:\what.cd\The Triffids - Wide Open Road (Come Ride With Me - 10CD Deluxe Edition, FLAC)\Disc 9 - Jack Brabham 2010 #1\14 The Triffids - Jack Brabham 2010 #1 - Good Morning Good Morning.wav

Peak level 100.0 % Extraction speed 3.6 X Track quality 99.9 % Test CRC 0FF19B0A Copy CRC 0FF19B0A Accurately ripped (confidence 5) [CBAFA6FD] Copy OK

Track 15

Filename S:\what.cd\The Triffids - Wide Open Road (Come Ride With Me - 10CD Deluxe Edition, FLAC)\Disc 9 - Jack Brabham 2010 #1\15 The Triffids - Jack Brabham 2010 #1 - Into The Groove.wav

Peak level 100.0 % Extraction speed 4.3 X Track quality 99.9 % Test CRC AE61E4A5 Copy CRC AE61E4A5 Accurately ripped (confidence 5) [6D89B7A2] Copy OK

Track 16

Filename S:\what.cd\The Triffids - Wide Open Road (Come Ride With Me - 10CD Deluxe Edition, FLAC)\Disc 9 - Jack Brabham 2010 #1\16 The Triffids - Jack Brabham 2010 #1 - Goodbye Little Boy.wav

Peak level 100.0 % Extraction speed 5.0 X Track quality 100.0 % Test CRC 95611772 Copy CRC 95611772 Accurately ripped (confidence 5) [13445FFE] Copy OK

Track 17

Filename S:\what.cd\The Triffids - Wide Open Road (Come Ride With Me - 10CD Deluxe Edition, FLAC)\Disc 9 - Jack Brabham 2010 #1\17 The Triffids - Jack Brabham 2010 #1 - Rent.wav

Peak level 100.0 % Extraction speed 5.0 X Track quality 100.0 % Test CRC AD0F9B3E Copy CRC AD0F9B3E Accurately ripped (confidence 5) [C5E278DF] Copy OK

Track 18

Filename S:\what.cd\The Triffids - Wide Open Road (Come Ride With Me - 10CD Deluxe Edition, FLAC)\Disc 9 - Jack Brabham 2010 #1\18 The Triffids - Jack Brabham 2010 #1 - Kelly's Blues.wav

Peak level 100.0 % Extraction speed 5.6 X Track quality 100.0 % Test CRC 1E44D733 Copy CRC 1E44D733 Accurately ripped (confidence 5) [64C666DE] Copy OK

Track 19

Filename S:\what.cd\The Triffids - Wide Open Road (Come Ride With Me - 10CD Deluxe Edition, FLAC)\Disc 9 - Jack Brabham 2010 #1\19 The Triffids - Jack Brabham 2010 #1 - Blinder By The Hour.wav

Peak level 100.0 % Extraction speed 5.3 X Track quality 100.0 % Test CRC E0B826B6 Copy CRC E0B826B6 Accurately ripped (confidence 5) [82701BEB] Copy OK

Track 20

Filename S:\what.cd\The Triffids - Wide Open Road (Come Ride With Me - 10CD Deluxe Edition, FLAC)\Disc 9 - Jack Brabham 2010 #1\20 The Triffids - Jack Brabham 2010 #1 - Just Might Fade Away.wav

Pre-gap length 0:00:00.15

Peak level 100.0 % Extraction speed 5.6 X Track quality 100.0 % Test CRC DA3E6715 Copy CRC DA3E6715 Accurately ripped (confidence 5) [9D19F233] Copy OK

Track 21

Filename S:\what.cd\The Triffids - Wide Open Road (Come Ride With Me - 10CD Deluxe Edition, FLAC)\Disc 9 - Jack Brabham 2010 #1\21 The Triffids - Jack Brabham 2010 #1 - Spinning Top Song.wav

Peak level 100.0 % Extraction speed 5.7 X Track quality 100.0 % Test CRC 24AACA51 Copy CRC 24AACA51 Accurately ripped (confidence 5) [076528B7] Copy OK

Track 22

Filename S:\what.cd\The Triffids - Wide Open Road (Come Ride With Me - 10CD Deluxe Edition, FLAC)\Disc 9 - Jack Brabham 2010 #1\22 The Triffids - Jack Brabham 2010 #1 - A Trick Of The Light.wav

Peak level 57.2 % Extraction speed 5.6 X Track quality 100.0 % Test CRC CE20029C Copy CRC CE20029C Accurately ripped (confidence 5) [E2E9C2BE] Copy OK

Track 23

Filename S:\what.cd\The Triffids - Wide Open Road (Come Ride With Me - 10CD Deluxe Edition, FLAC)\Disc 9 - Jack Brabham 2010 #1\23 The Triffids - Jack Brabham 2010 #1 - Too Hot To Move Too Hot To Think.wav

Peak level 72.0 % Extraction speed 6.0 X Track quality 100.0 % Test CRC 0496FF5C Copy CRC 0496FF5C Accurately ripped (confidence 5) [9A330CBF] Copy OK

Track 24

Filename S:\what.cd\The Triffids - Wide Open Road (Come Ride With Me - 10CD Deluxe Edition, FLAC)\Disc 9 - Jack Brabham 2010 #1\24 The Triffids - Jack Brabham 2010 #1 - Fairytale Love.wav

Peak level 100.0 % Extraction speed 6.6 X Track quality 100.0 % Test CRC AFE8BA87 Copy CRC AFE8BA87 Accurately ripped (confidence 5) [F5652B7A] Copy OK

All tracks accurately ripped

No errors occurred

End of status report

==== Log checksum 4A59E1F43B2302496E0E73E5996D4CFD90AC25FE284BF4DD275E736D4C36E7B4 ====


Трекер:  [ 16-Окт-2012 20:25 ]

  

Скачать .torrent

Размер .torrent файла 45 KB


Размер: 4.27 GB
Хэш (hash) релиза: 896365104fc46e9fd9a383ea546c79f5c93b3f88

Еще никто не оставлял запись к записи скачать торрент The Triffids - Come Ride With Me... Wide Open Road - The Deluxe Edition . Будь первым!

!Обратная связь