Скачать через торрент музыку Eric Burdon - Absolutely The Best - 1999, FLAC бесплатно без регистрации torrent

Если у вас наблюдаются проблемы со скриншотами, переходом по ссылками, скачиванием торрентов - проблемы в блокировщике рекламы AdBlock. #хорошегоДня!


Статистика раздачи
Размер:  365 MB   |    Зарегистрирован:  5 лет   |    .torrent скачан:  28 раз   |   
Раздают:  1  
   
Загрузка...
 
Автор Сообщение

Galfimbul

avatar Galfimbul


Eric Burdon / Absolutely The Best

Страна исполнителя: GB
Жанр: Classic Rock
Страна-производитель диска: USA
Год издания: 1999
Издатель (лейбл): Fuel2000
Номер по каталогу: FLD1034

Аудиокодек: FLAC (*.flac)
Тип рипа: image+.cue
Битрейт аудио: lossless
Продолжительность: 57:20
Источник (релизер): Собственный рип
Наличие сканов в содержимом раздачи: да

Треклист:
01. House of the Rising Sun
02. Don't Let Me Be Misunderstood
03. We Gotta Get Out of This Place
04. It's My Life
05. Help Me Girl
06. Boom Boom
07. Inside - Looking Out
08. Don't Bring Me Down
09. I'm Crying
10. Bring It on Home to Me
11. San Franciscan Nights
12. See See Rider
13. Spill the Wine
14. Monterey
15. When I Was Young
16. White Houses
Exact Audio Copy V1.0 beta 1 from 15. November 2010

EAC extraction logfile from 13. October 2012, 10:22

Eric Burdon / Absolutely The Best

Used drive : Optiarc DVD RW AD-7263S Adapter: 3 ID: 0

Read mode : SecureUtilize accurate stream : YesDefeat audio cache : YesMake use of C2 pointers : No

Read offset correction : 48Overread into Lead-In and Lead-Out : NoFill up missing offset samples with silence : YesDelete leading and trailing silent blocks : NoNull samples used in CRC calculations : YesUsed interface : Native Win32 interface for Win NT & 2000

Used output format : User Defined EncoderSelected bitrate : 32 kBit/sQuality : HighAdd ID3 tag : NoCommand line compressor : C:\Program Files\Exact Audio Copy\Flac\flac.exeAdditional command line options : -T "DATE=%y" -T "GENRE=%m" -8 -V %s

TOC of the extracted CD

Track | Start | Length | Start sector | End sector --------------------------------------------------------- 1 | 0:00.00 | 4:41.05 | 0 | 21079 2 | 4:41.05 | 2:18.45 | 21080 | 31474 3 | 6:59.50 | 3:19.05 | 31475 | 46404 4 | 10:18.55 | 3:14.71 | 46405 | 61025 5 | 13:33.51 | 2:52.28 | 61026 | 73953 6 | 16:26.04 | 3:14.72 | 73954 | 88575 7 | 19:41.01 | 3:57.21 | 88576 | 106371 8 | 23:38.22 | 3:17.14 | 106372 | 121160 9 | 26:55.36 | 2:52.23 | 121161 | 134083 10 | 29:47.59 | 3:00.59 | 134084 | 147642 11 | 32:48.43 | 3:52.34 | 147643 | 165076 12 | 36:41.02 | 4:05.31 | 165077 | 183482 13 | 40:46.33 | 5:00.55 | 183483 | 206037 14 | 45:47.13 | 4:13.40 | 206038 | 225052 15 | 50:00.53 | 3:15.44 | 225053 | 239721 16 | 53:16.22 | 4:04.41 | 239722 | 258062

Range status and errors

Selected range

Filename C:\Documents and Settings\maxim\Мои документы\Мои рисунки\Eric Burdon - Absolutely The Best.wav

Peak level 98.4 % Extraction speed 0.2 X Range quality 99.9 % Test CRC 2733234F Copy CRC 2733234F Copy OK

No errors occurred

AccurateRip summary

Track 1 cannot be verified as accurate (confidence 7) [3B1766BB], AccurateRip returned [EF3FADCB]Track 2 cannot be verified as accurate (confidence 7) [399F67B2], AccurateRip returned [1B192541]Track 3 cannot be verified as accurate (confidence 7) [DF34C357], AccurateRip returned [6C270BE4]Track 4 cannot be verified as accurate (confidence 7) [4BE00E5A], AccurateRip returned [671EAB40]Track 5 cannot be verified as accurate (confidence 7) [8E9BE522], AccurateRip returned [7C4F5FBF]Track 6 cannot be verified as accurate (confidence 7) [4B0B1FE2], AccurateRip returned [6DD4CCE5]Track 7 cannot be verified as accurate (confidence 7) [ABD43022], AccurateRip returned [5D9E69A2]Track 8 cannot be verified as accurate (confidence 7) [6265FBF4], AccurateRip returned [9A4193E7]Track 9 cannot be verified as accurate (confidence 7) [1FD7B32B], AccurateRip returned [F30A72D1]Track 10 cannot be verified as accurate (confidence 7) [E2E027FC], AccurateRip returned [2E66DFBE]Track 11 cannot be verified as accurate (confidence 7) [312A30A7], AccurateRip returned [0E6E7197]Track 12 cannot be verified as accurate (confidence 7) [98221EC8], AccurateRip returned [9ACA7496]Track 13 cannot be verified as accurate (confidence 7) [995E57C1], AccurateRip returned [24E5644B]Track 14 cannot be verified as accurate (confidence 7) [DD3955F9], AccurateRip returned [CF4BFFE8]Track 15 cannot be verified as accurate (confidence 7) [080C4C6E], AccurateRip returned [825C9F67]Track 16 cannot be verified as accurate (confidence 7) [283DD1F1], AccurateRip returned [CF82BFD6]

No tracks could be verified as accurateYou may have a different pressing from the one(s) in the database

End of status report

==== Log checksum E332D603CA30F3E4848E9F6572BF8DBCE39B75BE44831B7372182EBFD7BB31EC ====


Трекер:  [ 14-Окт-2012 11:20 ]

  

Скачать .torrent

Размер .torrent файла 15 KB


Размер: 365 MB
Хэш (hash) релиза: 9b4e9b753c0928ec379ee99539d118cc88df5857

Еще никто не оставлял запись к записи скачать торрент Eric Burdon - Absolutely The Best - 1999, FLAC . Будь первым!

!Обратная связь