Скачать через торрент музыку Eric Burdon - Burdon Tracks -The Eric Burdons Story - 1998, FLAC бесплатно без регистрации torrent

Если у вас наблюдаются проблемы со скриншотами, переходом по ссылками, скачиванием торрентов - проблемы в блокировщике рекламы AdBlock. #хорошегоДня!


Статистика раздачи
Размер:  466 MB   |    Зарегистрирован:  4 года 10 месяцев   |    .torrent скачан:  11 раз   |   
Раздают:  1  
   
Загрузка...
 
Автор Сообщение

Galfimbul

avatar Galfimbul


Eric Burdon / Burdon Tracks -The Eric Burdons Story

Страна исполнителя: GB
Жанр: Classic Rock
Страна-производитель диска: Australia
Год издания: 1998
Издатель (лейбл): AIM Records
Номер по каталогу: AIM 1066 CD

Аудиокодек: FLAC (*.flac)
Тип рипа: image+.cue
Битрейт аудио: lossless
Продолжительность: 1:10:04
Источник (релизер): Собственный рип
Наличие сканов в содержимом раздачи: да

Треклист:
1. We Gotta Get Out Of This Place (9:32)
2. Take It Easy (4:49)
3. I'm Crying (4:59)
4. House Of The Rising Sun (4:58)
5. Don't Let Me Be Misunderstood (6:32)
6. Don't Bring Me Down (5:11)
7. Bird On The Beach (5:57)
8. Lights Out (1:45)
9. I'm Ready (3:44)
10. Devil's Daughter (4:06)
11. Be My Baby (3:18)
12. Boom Boom (4:46)
13. Tobacco Road (10:27)
Exact Audio Copy V1.0 beta 1 from 15. November 2010

EAC extraction logfile from 13. October 2012, 11:13

Eric Burdon & The Animals / The Eric Burdon Story

Used drive : Optiarc DVD RW AD-7263S Adapter: 3 ID: 0

Read mode : SecureUtilize accurate stream : YesDefeat audio cache : YesMake use of C2 pointers : No

Read offset correction : 48Overread into Lead-In and Lead-Out : NoFill up missing offset samples with silence : YesDelete leading and trailing silent blocks : NoNull samples used in CRC calculations : YesUsed interface : Native Win32 interface for Win NT & 2000

Used output format : User Defined EncoderSelected bitrate : 32 kBit/sQuality : HighAdd ID3 tag : NoCommand line compressor : C:\Program Files\Exact Audio Copy\Flac\flac.exeAdditional command line options : -T "DATE=%y" -T "GENRE=%m" -8 -V %s

TOC of the extracted CD

Track | Start | Length | Start sector | End sector --------------------------------------------------------- 1 | 0:00.00 | 9:32.58 | 0 | 42957 2 | 9:32.58 | 4:49.57 | 42958 | 64689 3 | 14:22.40 | 4:59.49 | 64690 | 87163 4 | 19:22.14 | 4:58.07 | 87164 | 109520 5 | 24:20.21 | 6:32.21 | 109521 | 138941 6 | 30:52.42 | 5:11.13 | 138942 | 162279 7 | 36:03.55 | 5:57.49 | 162280 | 189103 8 | 42:01.29 | 1:45.39 | 189104 | 197017 9 | 43:46.68 | 3:44.02 | 197018 | 213819 10 | 47:30.70 | 4:06.06 | 213820 | 232275 11 | 51:37.01 | 3:18.47 | 232276 | 247172 12 | 54:55.48 | 4:46.08 | 247173 | 268630 13 | 59:41.56 | 10:27.56 | 268631 | 315711

Range status and errors

Selected range

Filename C:\Documents and Settings\maxim\Мои документы\Моя музыка\Eric Burdon & The Animals - The Eric Burdon Story.wav

Peak level 97.7 % Extraction speed 0.6 X Range quality 100.0 % Test CRC 5DEC554A Copy CRC 5DEC554A Copy OK

No errors occurred

AccurateRip summary

Track 1 not present in databaseTrack 2 not present in databaseTrack 3 not present in databaseTrack 4 not present in databaseTrack 5 not present in databaseTrack 6 not present in databaseTrack 7 not present in databaseTrack 8 not present in databaseTrack 9 not present in databaseTrack 10 not present in databaseTrack 11 not present in databaseTrack 12 not present in databaseTrack 13 not present in database

None of the tracks are present in the AccurateRip database

End of status report

==== Log checksum 5D0CDF5A65077158665FACCCA1A99B966BC27FD42A8CA7B7609F570FC99717C8 ====


Трекер:  [ 14-Окт-2012 11:20 ]

  

Скачать .torrent

Размер .torrent файла 19 KB


Размер: 466 MB
Хэш (hash) релиза: 4e623e580616df16d9659f13f775b6d71b917152

Еще никто не оставлял запись к записи скачать торрент Eric Burdon - Burdon Tracks -The Eric Burdons Story - 1998, FLAC . Будь первым!

!Обратная связь