Скачать через торрент музыку PALE NUDES - Soul Come Home - 1998, бесплатно без регистрации torrent

Если у вас наблюдаются проблемы со скриншотами, переходом по ссылками, скачиванием торрентов - проблемы в блокировщике рекламы AdBlock. #хорошегоДня!


Статистика раздачи
Размер:  352 MB   |    Зарегистрирован:  4 года 10 месяцев   |    .torrent скачан:  9 раз   |   
Раздают:  1  
   
Загрузка...
 
Автор Сообщение

Galfimbul

avatar Galfimbul


PALE NUDES / Soul Come Home

Жанр: avantrockjazzfolk
Год издания: 1998
Издатель (лейбл): RecRec
Аудиокодек: FLAC (*.flac)
Тип рипа: image+.cue
Битрейт аудио: lossless
Источник (релизер): свой cd
Наличие сканов в содержимом раздачи: да
Треклист:

1 Shine 4:09
2 Les Sons Se Répondent 3:34
3 Mirror 4:23
4 Soul Come Home 4:54
5 Opposites 3:52
6 Ice And Fire 2:57
7 Guns 4:21
8 Zemrude 4:02
9 Red Purse Dance 3:40
10 Inner Music 4:18
11 Darling, Please Don´t Wake Me 5:58
Exact Audio Copy V0.99 prebeta 4 from 23. January 2008

Отчёт EAC об извлечении, выполненном 14. октября 2012, 11:22

pale nudes / Soul Come Home

Дисковод: HL-DT-STDVDRAM GSA-T50L Adapter: 0 ID: 1

Режим чтения : ДостоверностьИспользование точного потока : ДаОтключение кэша аудио : ДаИспользование указателей C2 : Нет

Коррекция смещения при чтении : 667Способность читать области Lead-in и Lead-out : НетЗаполнение пропущенных сэмплов тишиной : ДаУдаление блоков с тишиной в начале и конце : НетПри вычислениях CRC использовались нулевые сэмплы : ДаИнтерфейс : Встроенный Win32-интерфейс для Win NT/2000

Выходной формат : Внутренние WAV-операцииФормат сэмплов : 44.100 Гц; 16 бит; стерео

TOC извлечённого CD

Трек | Старт | Длительность | Начальный сектор | Конечный сектор --------------------------------------------------------------------- 1 | 0:00.00 | 4:11.72 | 0 | 18896 2 | 4:11.72 | 3:36.03 | 18897 | 35099 3 | 7:48.00 | 4:24.22 | 35100 | 54921 4 | 12:12.22 | 4:56.15 | 54922 | 77136 5 | 17:08.37 | 3:53.38 | 77137 | 94649 6 | 21:02.00 | 2:57.32 | 94650 | 107956 7 | 23:59.32 | 4:22.55 | 107957 | 127661 8 | 28:22.12 | 4:03.68 | 127662 | 145954 9 | 32:26.05 | 3:42.45 | 145955 | 162649 10 | 36:08.50 | 4:21.62 | 162650 | 182286 11 | 40:30.37 | 5:58.05 | 182287 | 209141

Характеристики диапазона извлечения и сообщения об ошибках

Выбранный диапазон

Имя файла E:\Раздачи на torrents.ru\Pale Nudes-Soul Come Home\CDImage.wav

Пиковый уровень 100.0 % Качество диапазона 100.0 % CRC копии C3381FF8 Копирование... OK

Ошибок не произошло

AccurateRip: сводка

Трек 1 точное извлечение (доверие 1) [CA6FE4EE]Трек 2 точное извлечение (доверие 1) [986FA86F]Трек 3 точное извлечение (доверие 1) [10A6A708]Трек 4 точное извлечение (доверие 1) [31C1978B]Трек 5 точное извлечение (доверие 1) [77E09269]Трек 6 точное извлечение (доверие 1) [22B9A34F]Трек 7 точное извлечение (доверие 1) [2C352A98]Трек 8 точное извлечение (доверие 1) [4638D9A8]Трек 9 точное извлечение (доверие 1) [895BFDD6]Трек 10 точное извлечение (доверие 1) [1A4ABA3A]Трек 11 точное извлечение (доверие 1) [313B513E]

Все треки извлечены точно

Конец отчёта
Швейцарская группа Pale Nudes появились в следствии процесса отпочкования от группы Криса Катлера (Chris Cutler), который в 1992 году основал с гитаристом Вади Гизи (Wadi Gysi) и Эми Дэнайо (Amy Denio) коллектив (EC) Nudes, который и гастролировал, и записывался в студии, однако когда в 1995-м году время Катлера начало поджимать и он стал понимать, что не успевает участвовать в стольких проектах, он решил завязать. Однако, хоть это и убило (EC) Nudes, но дало жизнь другой интересной группы. Ей и стал коллектив Pale Nudes, который записал свой первый альбом под названием Wise to the Heat в тот же год.

Состав группы дополнили барабанщик и перкуссионист Уилл Дауд (Will Dowd) и контрабасист Михаэль Гербер (Michael Gerber). А учитывая необыкновенную мультиинструментальность самой Эми, то ничего нет удивительного в том, что звук на дебютном альбоме оказался столь насыщенным, богатым и разнообразным. Дэнайо тут мало того, что прекрасно поет, так еще и играет на аккордеоне, альт-саксофоне и перкуссии. Вообще, по большому счету это почти сольная работа Эми Денайо. Слишком много и хорошо она тут поет, играет, а композиции совершенно в ее стиле - по сути являясь качественной и красивой авант-поп-музыкой, они обладают настолько утонченным изяществом, аранжированы в столь изысканных манерах и насыщены такими разнообразными и отвязными партиями как саксофона, так и аккордеона, что кроме как о красоте этой музыки говорить не хочется. Впрочем, не стоит умалять и вклад остальных участников - часть композиций написал как раз Гизи а вкрадчивое сочетание контрабаса и мягких звуков барабанов добавляет необыкновенную акустическую глубину каждого отдельно взятого трека, куда то саксофон, то аккордеон укладываются с такой точностью и уверенностью, что в пору разве что только удивиться.

Через три года (в 1998 году) был записан еще один - второй и последний в истории группы альбом Soul Come Home. Уже с другим барабанщиком - Фреди Флюкигером (Fredi Flukiger) и органистом Йероеном Виссером (Jeroen Visser). Говорят, что второй диск стал более агрессивным, чем дебютник, и тяготеет уже скорее к рок-музыке. Я его, увы мне, не слышал.
из wiki progmusic.ru
теперь можно послушать....
Bass– Mich Gerber
Drums, Percussion, Voice– Fredi Flükiger
Executive Producer– Waedi Gysi
Mastered By– Glenn Miller (3)
Organ, Guitar– Jeroen Visser
Recorded By– Fredi Flükiger, Jeroen Visser, Waedi Gysi*
Voice, Guitar– Waedi Gysi*
Voice, Saxophone, Guitar, Accordion– Amy Denio


Трекер:  [ 14-Окт-2012 11:20 ]

  

Скачать .torrent

Размер .torrent файла 15 KB


Размер: 352 MB
Хэш (hash) релиза: 4369d2355f0472591ce519bf13b5d5d7102b4b7f

Еще никто не оставлял запись к записи скачать торрент PALE NUDES - Soul Come Home - 1998, . Будь первым!

!Обратная связь