Скачать через торрент музыку Blyndsyde - Into the Storm of the Eye бесплатно без регистрации torrent

Если у вас наблюдаются проблемы со скриншотами, переходом по ссылками, скачиванием торрентов - проблемы в блокировщике рекламы AdBlock. #хорошегоДня!


Статистика раздачи
Размер:  378 MB   |    Зарегистрирован:  4 года 10 месяцев   |    .torrent скачан:  26 раз   |   
Раздают:  1  
   
Загрузка...
 
Автор Сообщение

Galfimbul

avatar Galfimbul


Blyndsyde - Into the Storm of the Eye

Жанр: Neo/Heavy Progressive
Год выпуска диска: 1993
Страна: Netherlands
Label: SI Music
Catalog Nr.: Simply Twenty One
Аудио кодек: FLAC
Тип рипа: image+.cue (test&copy)
Битрейт аудио: lossless
Продолжительность: 50:00
Источник: свой рип

Трэклист:

1. My Castle in Green
2. Sanguis
3. Numb to Sorrow
4. Elysium
5. Into the Eye of the Storm
6. Spiritual Itch
7. Kiss this Rose
8. What It's Like
9. (I Can't Beleive It's Not) Butter!
10. Waiting
11. Don't Forget the Sun
12. 3 of Swords (Pica Pica)
13. Sooner or Later

Total Time: 50:00

Музыканты:

- Paulè Van-Wijngaarden / Vocals & Flute
- John Brooks / Lead & Rhythm Guitars
- Andy Whitehead / Bass Guitar
- Tony Doyle / Drums & Percussion

Об альбоме: Сразу же скажу, что не нужно путать этот одноальбомный проект из Голландии с одноимёнными металлистами из штатов, что популярны в наши дни у соответствующей категории населения.
Это очень мелодичный, в утяжелённый голландский нео, с приятным и очень оригинальным женским вокалом. Рекомендую.
Диск взят из коллекции hyperborea70, за что ему отдельное большое спасибо.
Exact Audio Copy V1.0 beta 3 from 29. August 2011

EAC extraction logfile from 13. October 2012, 0:08

Blyndsyde / Into the Storm of the Eye

Used drive : ASUS DRW-24B1LT Adapter: 4 ID: 0

Read mode : Secure
Utilize accurate stream : Yes
Defeat audio cache : Yes
Make use of C2 pointers : No

Read offset correction : 6
Overread into Lead-In and Lead-Out : No
Fill up missing offset samples with silence : Yes
Delete leading and trailing silent blocks : No
Null samples used in CRC calculations : Yes
Used interface : Native Win32 interface for Win NT & 2000

Used output format : User Defined Encoder
Selected bitrate : 1024 kBit/s
Quality : High
Add ID3 tag : Yes
Command line compressor : C:\Program Files (x86)\FLAC\flac.exe
Additional command line options : -6 -V -T "ARTIST=%artist%" -T "TITLE=%title%" -T "ALBUM=%albumtitle%" -T "DATE=%year%" -T "TRACKNUMBER=%tracknr%" -T "GENRE=%genre%" -T "COMMENT=%comment%" %source% -o %dest%

TOC of the extracted CD

Track | Start | Length | Start sector | End sector
---------------------------------------------------------
1 | 0:00.32 | 3:26.33 | 32 | 15514
2 | 3:26.65 | 3:47.67 | 15515 | 32606
3 | 7:14.57 | 4:04.65 | 32607 | 50971
4 | 11:19.47 | 3:19.28 | 50972 | 65924
5 | 14:39.00 | 2:02.42 | 65925 | 75116
6 | 16:41.42 | 7:15.33 | 75117 | 107774
7 | 23:57.00 | 2:48.72 | 107775 | 120446
8 | 26:45.72 | 3:25.18 | 120447 | 135839
9 | 30:11.15 | 3:11.20 | 135840 | 150184
10 | 33:22.35 | 2:29.10 | 150185 | 161369
11 | 35:51.45 | 7:35.27 | 161370 | 195521
12 | 43:26.72 | 1:51.73 | 195522 | 203919
13 | 45:18.70 | 4:42.05 | 203920 | 225074

Range status and errors

Selected range

Filename Y:\EAC\wurensh\Blyndsyde\Blyndsyde - Into the Storm of the Eye.wav

Peak level 99.9 %
Extraction speed 3.3 X
Range quality 100.0 %
Test CRC 9143CD45
Copy CRC 9143CD45
Copy OK

No errors occurred

AccurateRip summary

Track 1 not present in database
Track 2 not present in database
Track 3 not present in database
Track 4 not present in database
Track 5 not present in database
Track 6 not present in database
Track 7 not present in database
Track 8 not present in database
Track 9 not present in database
Track 10 not present in database
Track 11 not present in database
Track 12 not present in database
Track 13 not present in database

None of the tracks are present in the AccurateRip database

End of status report
Коврики 300dpi в комплекте.
No info @Progarchives present

Трекер:  [ 14-Окт-2012 11:19 ]

  

Скачать .torrent

Размер .torrent файла 15 KB


Размер: 378 MB
Хэш (hash) релиза: a36d2ee0ba57e83387924bce955b9a1defc32a8b

Торренты, похожие на Blyndsyde - Into the Storm of the Eye скачать торрент

Форум Название Автор Размер S L Добавлен
Rосk | Mеtаl | Аltеrnаtivе, Рunk, Indереndеnt (mр3) ·· (Neo/Heavy Progressive) Blyndsyde - Into the Storm of the Eye (1993), MP3, 320 kbps Galfimbul 120253685115 MB 0 0 1430156716

20:45

27-Апр-15

Еще никто не оставлял запись к записи скачать торрент Blyndsyde - Into the Storm of the Eye . Будь первым!

!Обратная связь