Скачать через торрент музыку Emerson, Lake & Palmer ELP - Коллекция бесплатно без регистрации torrent

Если у вас наблюдаются проблемы со скриншотами, переходом по ссылками, скачиванием торрентов - проблемы в блокировщике рекламы AdBlock. #хорошегоДня!


Статистика раздачи
Размер:  3.9 GB   |    Зарегистрирован:  4 года 10 месяцев   |    .torrent скачан:  50 раз   |   
Раздают:  1  
   
Загрузка...
 
Автор Сообщение

Galfimbul

avatar Galfimbul


Emerson, Lake & Palmer / Коллекция - (2011 Remastered Series Sony Music, 9+1 Albums, 11CD)

Жанр: Progressive & Art-Rock
Страна-производитель диска: EU
Оригинальный год издания: 1970-1994
Год издания: 2011
Издатель (лейбл): Leadclass Limited / Sony Music Entertainment
Страна: England
Аудиокодек: FLAC (*.flac)
Тип рипа: image+.cue
Битрейт аудио: lossless
Продолжительность: 09:37:29
Источник (релизер): Собственный
Наличие сканов в содержимом раздачи: да (Ping, 300dpi, 507Mb)

Об альбоме (сборнике): В данной Коллекции собраны ремастированные издания всех 9-ти студийных альбомов и одного концертного альбома, которые были выпущены Leadclass Limited / Sony Music Entertainment 14 февраля и 14 марта 2011 года.
Обложка раздачи - коллаж от ...
Discogs | Wikipedia | Amazon | Official page
Состав :
Keith Emerson – Hammond organs, piano, harpsichord, accordion, Moog Modular IIIc synthesiser, Moog Minimoog synthesiser, Moog Constellation polyphonic ensemble (consisting of Moog Lyra solo synthesiser, Moog Apollo polyphonic synthesiser (Polymoog prototype) later used to create Moog Taurus bass pedal synthesiser, ring-modulated "computer" voice, pipe organ, Ribbon controller, Clavinet
Greg Lake – vocals, six and twelve string acoustic & electric guitars, bass guitar
Carl Palmer – drums, percussion, gongs, timpani, percussion synthesisers (drum-based synthesiser triggers)

Studio Albums

Amazon | Discogs
Треклист:
01. The Barbarian - 4:34
02. Take a Pebble - 12:34
03. Knife Edge - 5:06
04. The Three Fates - 7:44
i. Clotho
ii. Lachesis
iii. Atropos
05. Tank - 6:52
06. Lucky Man - 4:38
Exact Audio Copy V1.0 beta 3 from 29. August 2011

EAC extraction logfile from 10. October 2012, 21:33

Emerson, Lake & Palmer / Emerson, Lake & Palmer (2011, Sony Music. 88697830072)

Used drive : Optiarc DVD RW AD-5200S Adapter: 2 ID: 0

Read mode : SecureUtilize accurate stream : YesDefeat audio cache : YesMake use of C2 pointers : No

Read offset correction : 48Overread into Lead-In and Lead-Out : NoFill up missing offset samples with silence : YesDelete leading and trailing silent blocks : NoNull samples used in CRC calculations : YesUsed interface : Native Win32 interface for Win NT & 2000

Used output format : User Defined EncoderSelected bitrate : 1024 kBit/sQuality : HighAdd ID3 tag : NoCommand line compressor : C:\Program Files (x86)\Exact Audio Copy\FLAC\FLAC.EXEAdditional command line options : -8 -V -T "ARTIST=%artist%" -T "TITLE=%title%" -T "ALBUM=%albumtitle%" -T "DATE=%year%" -T "TRACKNUMBER=%tracknr%" -T "GENRE=%genre%" -T "PERFORMER=%albuminterpret%" -T "COMPOSER=%composer%" %haslyrics%--tag-from-file=LYRICS="%lyricsfile%"%haslyrics% -T "ALBUMARTIST=%albumartist%" -T "DISCNUMBER=%cdnumber%" -T "TOTALDISCS=%totalcds%" -T "TOTALTRACKS=%numtracks%" -T "COMMENT=%comment%" %source% -o %dest%

TOC of the extracted CD

Track | Start | Length | Start sector | End sector --------------------------------------------------------- 1 | 0:00.00 | 4:33.51 | 0 | 20525 2 | 4:33.51 | 12:33.67 | 20526 | 77067 3 | 17:07.43 | 5:06.18 | 77068 | 100035 4 | 22:13.61 | 7:44.20 | 100036 | 134855 5 | 29:58.06 | 6:52.31 | 134856 | 165786 6 | 36:50.37 | 4:37.49 | 165787 | 186610

Range status and errors

Selected range

Filename G:\CD\Emerson, Lake & Palmer - Emerson, Lake & Palmer (2011, Sony Music. 88697830072).wav

Peak level 97.7 % Extraction speed 3.7 X Range quality 100.0 % Test CRC A2FCFEFD Copy CRC A2FCFEFD Copy OK

No errors occurred

AccurateRip summary

Track 1 accurately ripped (confidence 8) [8E681132] (AR v2)Track 2 accurately ripped (confidence 8) [F7E6CC80] (AR v2)Track 3 accurately ripped (confidence 8) [7B436919] (AR v2)Track 4 accurately ripped (confidence 8) [BE37AEBA] (AR v2)Track 5 accurately ripped (confidence 8) [32F12EBB] (AR v2)Track 6 accurately ripped (confidence 8) [D18C4383] (AR v2)

All tracks accurately ripped

End of status report

==== Log checksum 4D3319A44D12BE0DDFF6F7A52E2DF9219ADB90E58C80F80559E99EDDC04490F5 ====

Amazon | Discogs
Треклист:
01. Tarkus - 20:44
i. Eruption
ii. Stones of Years
iii. Iconoclast
iv. Mass
v. Manticore
vi. Battlefield
vii. Aquatarkus
02. Jeremy Bender - 1:50
03. Bitches Crystal - 3:58
04. The Only Way (Hymn) - 3:47
05. Infinite Space (Conclusion) - 3:22
06. A Time and a Place - 3:02
07. Are You Ready Eddy? - 2:12
Exact Audio Copy V1.0 beta 3 from 29. August 2011

EAC extraction logfile from 10. October 2012, 22:16

Emerson, Lake & Palmer / Tarkus (2011, 886978300829)

Used drive : Optiarc DVD RW AD-5200S Adapter: 2 ID: 0

Read mode : SecureUtilize accurate stream : YesDefeat audio cache : YesMake use of C2 pointers : No

Read offset correction : 48Overread into Lead-In and Lead-Out : NoFill up missing offset samples with silence : YesDelete leading and trailing silent blocks : NoNull samples used in CRC calculations : YesUsed interface : Native Win32 interface for Win NT & 2000

Used output format : User Defined EncoderSelected bitrate : 1024 kBit/sQuality : HighAdd ID3 tag : NoCommand line compressor : C:\Program Files (x86)\Exact Audio Copy\FLAC\FLAC.EXEAdditional command line options : -8 -V -T "ARTIST=%artist%" -T "TITLE=%title%" -T "ALBUM=%albumtitle%" -T "DATE=%year%" -T "TRACKNUMBER=%tracknr%" -T "GENRE=%genre%" -T "PERFORMER=%albuminterpret%" -T "COMPOSER=%composer%" %haslyrics%--tag-from-file=LYRICS="%lyricsfile%"%haslyrics% -T "ALBUMARTIST=%albumartist%" -T "DISCNUMBER=%cdnumber%" -T "TOTALDISCS=%totalcds%" -T "TOTALTRACKS=%numtracks%" -T "COMMENT=%comment%" %source% -o %dest%

TOC of the extracted CD

Track | Start | Length | Start sector | End sector --------------------------------------------------------- 1 | 0:00.00 | 20:43.47 | 0 | 93271 2 | 20:43.47 | 1:50.15 | 93272 | 101536 3 | 22:33.62 | 3:58.01 | 101537 | 119387 4 | 26:31.63 | 3:46.48 | 119388 | 136385 5 | 30:18.36 | 3:22.36 | 136386 | 151571 6 | 33:40.72 | 3:01.44 | 151572 | 165190 7 | 36:42.41 | 2:11.40 | 165191 | 175055

Range status and errors

Selected range

Filename G:\CD\Emerson, Lake & Palmer - Tarkus (2011, 886978300829).wav

Peak level 96.5 % Extraction speed 3.6 X Range quality 100.0 % Test CRC 37F65C4C Copy CRC 37F65C4C Copy OK

No errors occurred

AccurateRip summary

Track 1 accurately ripped (confidence 7) [3F1A6503] (AR v2)Track 2 accurately ripped (confidence 7) [7C2EF545] (AR v2)Track 3 accurately ripped (confidence 7) [0F4663A6] (AR v2)Track 4 accurately ripped (confidence 7) [F09C090A] (AR v2)Track 5 accurately ripped (confidence 7) [3E514A34] (AR v2)Track 6 accurately ripped (confidence 7) [02BBF68D] (AR v2)Track 7 accurately ripped (confidence 7) [8A1A709A] (AR v2)

All tracks accurately ripped

End of status report

==== Log checksum AA1A28474ACD85C43C445132DC7A7E7082EC2F9D242EC8E5FD25249DC1FE13F0 ====

Amazon | Discogs
Треклист:
01. The Endless Enigma (Part One) - 6:42
02. Fugue - 1:57
03. The Endless Enigma (Part Two) - 2:03
04. From the Beginning - 4:16
05. The Sheriff - 3:23
06. Hoedown - 3:47
07. Trilogy - 8:55
08. Living Sin - 3:14
09. Abaddon's Bolero - 8:10 Bonus Track:
10. Hoedown (Live) [Bonus Track] - 4:06
Exact Audio Copy V1.0 beta 1 from 15. November 2010

EAC extraction logfile from 15. September 2012, 7:56

Emerson, Lake & Palmer / Trilogy (886978301222)

Used drive : Optiarc DVD RW AD-5200S Adapter: 2 ID: 0

Read mode : SecureUtilize accurate stream : YesDefeat audio cache : YesMake use of C2 pointers : No

Read offset correction : 48Overread into Lead-In and Lead-Out : NoFill up missing offset samples with silence : YesDelete leading and trailing silent blocks : NoNull samples used in CRC calculations : YesUsed interface : Native Win32 interface for Win NT & 2000

Used output format : User Defined EncoderSelected bitrate : 1024 kBit/sQuality : HighAdd ID3 tag : NoCommand line compressor : C:\Program Files (x86)\Exact Audio Copy\FLAC\FLAC.EXEAdditional command line options : -8 -V %s

TOC of the extracted CD

Track | Start | Length | Start sector | End sector --------------------------------------------------------- 1 | 0:00.00 | 6:42.22 | 0 | 30171 2 | 6:42.22 | 1:57.03 | 30172 | 38949 3 | 8:39.25 | 2:03.19 | 38950 | 48193 4 | 10:42.44 | 4:16.25 | 48194 | 67418 5 | 14:58.69 | 3:22.70 | 67419 | 82638 6 | 18:21.64 | 3:47.09 | 82639 | 99672 7 | 22:08.73 | 8:54.55 | 99673 | 139777 8 | 31:03.53 | 3:13.46 | 139778 | 154298 9 | 34:17.24 | 8:10.20 | 154299 | 191068 10 | 42:27.44 | 4:06.12 | 191069 | 209530

Range status and errors

Selected range

Filename G:\Download\Музыка LossLess\Emerson, Lake & Palmer\1972 - Trilogy (2011, Sony Music. 886978301222)\Emerson, Lake & Palmer - Trilogy (886978301222).wav

Peak level 97.0 % Extraction speed 0.3 X Range quality 100.0 % Test CRC 4925F569 Copy CRC 4925F569 Copy OK

No errors occurred

AccurateRip summary

Track 1 accurately ripped (confidence 7) [C099727C]Track 2 accurately ripped (confidence 7) [E185C302]Track 3 accurately ripped (confidence 7) [91DC40F7]Track 4 accurately ripped (confidence 7) [AA9A6838]Track 5 accurately ripped (confidence 7) [E8AC97FC]Track 6 accurately ripped (confidence 7) [398F2C22]Track 7 accurately ripped (confidence 7) [9F84B260]Track 8 accurately ripped (confidence 7) [A2B9FE5B]Track 9 accurately ripped (confidence 7) [D8A89734]Track 10 accurately ripped (confidence 7) [56863886]

All tracks accurately ripped

End of status report

Amazon | Discogs
Треклист:
01. Jerusalem - 2:45
02. Toccata - 7:23
03. Still... You Turn Me On - 2:53
04. Benny The Bouncer - 2:21
05. Karn Evil 9 1st Impression Part 1 - 8:37
06. Karn Evil 9 1st Impression Part 2 - 4:46
07. Karn Evil 9: 2nd Impression - 7:07
08. Karn Evil 9: 3rd Impression - 9:07Bonus Track:
09. Brain Salad Surgery (Single) - 3:08
10. When The Apple Blossoms Bloom In The Windmills Of Your Mind I'll Be Your Valentine (Single) - 3:57
11. Excerpts From Brain salad Surgery (Flexi Disc) - 2:51
I. Karn Evil 9: First Impression
II. Karn Evil 9: Second Impression
III. Still... You Turn Me On
IV. Toccata
V. Jerusalem
VI. Karn Evil 9: Third Impression
VII. Benny The Bouncer
VIII. Karn Evil 9: First Impression
IX. Benny The Bouncer
Exact Audio Copy V1.0 beta 1 from 15. November 2010

EAC extraction logfile from 15. September 2012, 8:58

Emerson, Lake & Palmer / Brain Salad Surgery (88697830132)

Used drive : Optiarc DVD RW AD-5200S Adapter: 2 ID: 0

Read mode : SecureUtilize accurate stream : YesDefeat audio cache : YesMake use of C2 pointers : No

Read offset correction : 48Overread into Lead-In and Lead-Out : NoFill up missing offset samples with silence : YesDelete leading and trailing silent blocks : NoNull samples used in CRC calculations : YesUsed interface : Native Win32 interface for Win NT & 2000

Used output format : User Defined EncoderSelected bitrate : 1024 kBit/sQuality : HighAdd ID3 tag : NoCommand line compressor : C:\Program Files (x86)\Exact Audio Copy\FLAC\FLAC.EXEAdditional command line options : -8 -V %s

TOC of the extracted CD

Track | Start | Length | Start sector | End sector --------------------------------------------------------- 1 | 0:00.00 | 2:45.27 | 0 | 12401 2 | 2:45.27 | 7:22.64 | 12402 | 45615 3 | 10:08.16 | 2:53.08 | 45616 | 58598 4 | 13:01.24 | 2:21.28 | 58599 | 69201 5 | 15:22.52 | 8:37.20 | 69202 | 107996 6 | 23:59.72 | 4:45.57 | 107997 | 129428 7 | 28:45.54 | 7:07.05 | 129429 | 161458 8 | 35:52.59 | 9:07.10 | 161459 | 202493 9 | 44:59.69 | 3:08.06 | 202494 | 216599 10 | 48:08.00 | 3:57.20 | 216600 | 234394 11 | 52:05.20 | 2:51.30 | 234395 | 247249

Range status and errors

Selected range

Filename G:\Download\Музыка LossLess\Emerson, Lake & Palmer\1973 - Brain Salad Surgery (2011, Sony Music. 88697830132)\Emerson, Lake & Palmer - Brain Salad Surgery (88697830132).wav

Peak level 97.0 % Extraction speed 0.2 X Range quality 100.0 % Test CRC D18912A8 Copy CRC D18912A8 Copy OK

No errors occurred

AccurateRip summary

Track 1 accurately ripped (confidence 5) [D1C87927]Track 2 accurately ripped (confidence 5) [35AFAB7F]Track 3 accurately ripped (confidence 5) [051DB274]Track 4 accurately ripped (confidence 5) [7354C1AF]Track 5 accurately ripped (confidence 5) [FBBCC605]Track 6 accurately ripped (confidence 5) [6A24FD97]Track 7 accurately ripped (confidence 5) [3B139BC4]Track 8 accurately ripped (confidence 5) [90ADE761]Track 9 accurately ripped (confidence 5) [78B2814F]Track 10 accurately ripped (confidence 5) [3AA0B404]Track 11 accurately ripped (confidence 5) [C096D926]

All tracks accurately ripped

End of status report

Amazon | Discogs
Треклист:

CD 1 - 00:41:09
Keith Emerson
01. Piano Concerto No. 1 - 18:29
i. First Movement: "Allegro giocoso"
ii. Second Movement: "Andante molto cantabile"
iii. Third Movement: "Toccata con fuoco"
Greg Lake
02. Lend Your Love To Me Tonight - 4:05
03. C'est La Vie - 4:20
04. Hallowed Be Thy Name - 4:39
05. Nobody Loves You Like I Do - 4:01
06. Closer To Believing - 5:36

CD 2 - 01:03:40
Carl Palmer
01. The Enemy God Dances With The Black Spirits - 3:22
02. LA Nights - 5:47
03. New Orleans - 2:50
04. Two Part Invention In D Minor - 1:57
05. Food For Your Soul - 4:02
06. Tank - 5:11
Emerson Lake & Palmer
07. Fanfare For The Common Man - 9:47
08. Pirates - 13:22Bonus Track:
09. Tank (Live) [bonus] - 9:50
10. The Enemy God Dances With The Black Spirits (Live) [bonus] - 3:12
11. Nutrocker (Live) [bonus] - 4:20
Exact Audio Copy V1.0 beta 3 from 29. August 2011

EAC extraction logfile from 12. October 2012, 10:11

Emerson, Lake & Palmer / Works Volume 1 (2011, 88697848632-1) Disc 1

Used drive : Optiarc DVD RW AD-5200S Adapter: 2 ID: 0

Read mode : SecureUtilize accurate stream : YesDefeat audio cache : YesMake use of C2 pointers : No

Read offset correction : 48Overread into Lead-In and Lead-Out : NoFill up missing offset samples with silence : YesDelete leading and trailing silent blocks : NoNull samples used in CRC calculations : YesUsed interface : Native Win32 interface for Win NT & 2000

Used output format : User Defined EncoderSelected bitrate : 1024 kBit/sQuality : HighAdd ID3 tag : NoCommand line compressor : C:\Program Files (x86)\Exact Audio Copy\FLAC\FLAC.EXEAdditional command line options : -8 -V -T "ARTIST=%artist%" -T "TITLE=%title%" -T "ALBUM=%albumtitle%" -T "DATE=%year%" -T "TRACKNUMBER=%tracknr%" -T "GENRE=%genre%" -T "PERFORMER=%albuminterpret%" -T "COMPOSER=%composer%" %haslyrics%--tag-from-file=LYRICS="%lyricsfile%"%haslyrics% -T "ALBUMARTIST=%albumartist%" -T "DISCNUMBER=%cdnumber%" -T "TOTALDISCS=%totalcds%" -T "TOTALTRACKS=%numtracks%" -T "COMMENT=%comment%" %source% -o %dest%

TOC of the extracted CD

Track | Start | Length | Start sector | End sector --------------------------------------------------------- 1 | 0:00.00 | 18:28.66 | 0 | 83165 2 | 18:28.66 | 4:04.65 | 83166 | 101530 3 | 22:33.56 | 4:20.04 | 101531 | 121034 4 | 26:53.60 | 4:38.41 | 121035 | 141925 5 | 31:32.26 | 4:00.71 | 141926 | 159996 6 | 35:33.22 | 5:35.49 | 159997 | 185170

Range status and errors

Selected range

Filename G:\CD\Emerson, Lake & Palmer - Works Volume 1 (2011, 88697848632-1) Disc 1.wav

Peak level 96.6 % Extraction speed 3.7 X Range quality 100.0 % Test CRC A68653A5 Copy CRC A68653A5 Copy OK

No errors occurred

AccurateRip summary

Track 1 accurately ripped (confidence 2) [2733F5B5] (AR v2)Track 2 accurately ripped (confidence 2) [CB9C648F] (AR v2)Track 3 accurately ripped (confidence 2) [C9FEF094] (AR v2)Track 4 accurately ripped (confidence 2) [59031438] (AR v2)Track 5 accurately ripped (confidence 2) [EA7EA7BC] (AR v2)Track 6 accurately ripped (confidence 2) [6248189B] (AR v2)

All tracks accurately ripped

End of status report

==== Log checksum A571F6B0A1C95E7674D6B214F7888598230ABE64D4D23FC767A3F8B500E5408B ====
Exact Audio Copy V1.0 beta 3 from 29. August 2011

EAC extraction logfile from 13. October 2012, 19:51

Emerson, Lake & Palmer / Works Volume 1 (2011, 88697848632-2) Disc 2

Used drive : Optiarc DVD RW AD-5200S Adapter: 2 ID: 0

Read mode : SecureUtilize accurate stream : YesDefeat audio cache : YesMake use of C2 pointers : No

Read offset correction : 48Overread into Lead-In and Lead-Out : NoFill up missing offset samples with silence : YesDelete leading and trailing silent blocks : NoNull samples used in CRC calculations : YesUsed interface : Native Win32 interface for Win NT & 2000

Used output format : User Defined EncoderSelected bitrate : 1024 kBit/sQuality : HighAdd ID3 tag : NoCommand line compressor : C:\Program Files (x86)\Exact Audio Copy\FLAC\FLAC.EXEAdditional command line options : -8 -V -T "ARTIST=%artist%" -T "TITLE=%title%" -T "ALBUM=%albumtitle%" -T "DATE=%year%" -T "TRACKNUMBER=%tracknr%" -T "GENRE=%genre%" -T "PERFORMER=%albuminterpret%" -T "COMPOSER=%composer%" %haslyrics%--tag-from-file=LYRICS="%lyricsfile%"%haslyrics% -T "ALBUMARTIST=%albumartist%" -T "DISCNUMBER=%cdnumber%" -T "TOTALDISCS=%totalcds%" -T "TOTALTRACKS=%numtracks%" -T "COMMENT=%comment%" %source% -o %dest%

TOC of the extracted CD

Track | Start | Length | Start sector | End sector --------------------------------------------------------- 1 | 0:00.00 | 3:21.68 | 0 | 15142 2 | 3:21.68 | 5:46.59 | 15143 | 41151 3 | 9:08.52 | 2:50.08 | 41152 | 53909 4 | 11:58.60 | 1:57.33 | 53910 | 62717 5 | 13:56.18 | 4:02.26 | 62718 | 80893 6 | 17:58.44 | 5:10.55 | 80894 | 104198 7 | 23:09.24 | 9:46.40 | 104199 | 148188 8 | 32:55.64 | 13:21.48 | 148189 | 208311 9 | 46:17.37 | 9:50.35 | 208312 | 252596 10 | 56:07.72 | 3:12.07 | 252597 | 267003 11 | 59:20.04 | 4:20.09 | 267004 | 286512

Range status and errors

Selected range

Filename G:\CD\Emerson, Lake & Palmer - Works Volume 1 (2011, 88697848632-2) Disc 2.wav

Peak level 97.0 % Extraction speed 4.3 X Range quality 100.0 % Test CRC EFDC5C6E Copy CRC EFDC5C6E Copy OK

No errors occurred

AccurateRip summary

Track 1 accurately ripped (confidence 2) [3928D910] (AR v2)Track 2 accurately ripped (confidence 2) [5616DC7B] (AR v2)Track 3 accurately ripped (confidence 2) [CE295F96] (AR v2)Track 4 accurately ripped (confidence 2) [74E566F9] (AR v2)Track 5 accurately ripped (confidence 2) [346D8751] (AR v2)Track 6 accurately ripped (confidence 2) [2721A6A3] (AR v2)Track 7 accurately ripped (confidence 2) [3A2B537D] (AR v2)Track 8 accurately ripped (confidence 2) [E5CF870C] (AR v2)Track 9 accurately ripped (confidence 2) [9B57DD43] (AR v2)Track 10 accurately ripped (confidence 2) [77F51AA4] (AR v2)Track 11 accurately ripped (confidence 2) [1D6FAF3C] (AR v2)

All tracks accurately ripped

End of status report

==== Log checksum 64EC25C7F3CA23F89BBB6889B40E5021D8B06DC153BB38D3B1C34DCA16BDAC25 ====

Amazon | Discogs
Треклист:
01. Tiger in a spotlight - 4:36
02. When the apple blossoms bloom in the windmills of your mind I'll be your Valentine - 3:59
03. Bullfrog - 3:52
04. Brain salad surgery - 3:10
05. Barrelhouse shake-down - 3:52
06. Watching over you - 3:58
07. So far to fall - 4:57
08. Maple leaf rag - 2:03
09. I believe in Father Christmas - 3:20
10. Close but not touching - 3:22
11. Honky tonk train blues - 3:11
12. Show me the way to go home - 3:34Bonus Track:
13. Tiger in a spotlight (live) (bonustrack) - 4:16
14. Watching over you (live) (bonustrack) - 4:32
15. Show me the way to go home (live) (bonustrack) - 5:36
Exact Audio Copy V1.0 beta 3 from 29. August 2011

EAC extraction logfile from 12. October 2012, 19:41

Emerson Lake & Palmer / Works Volume 2 (2011, 88697848642)

Used drive : Optiarc DVD RW AD-5200S Adapter: 2 ID: 0

Read mode : SecureUtilize accurate stream : YesDefeat audio cache : YesMake use of C2 pointers : No

Read offset correction : 48Overread into Lead-In and Lead-Out : NoFill up missing offset samples with silence : YesDelete leading and trailing silent blocks : NoNull samples used in CRC calculations : YesUsed interface : Native Win32 interface for Win NT & 2000

Used output format : User Defined EncoderSelected bitrate : 1024 kBit/sQuality : HighAdd ID3 tag : NoCommand line compressor : C:\Program Files (x86)\Exact Audio Copy\FLAC\FLAC.EXEAdditional command line options : -8 -V -T "ARTIST=%artist%" -T "TITLE=%title%" -T "ALBUM=%albumtitle%" -T "DATE=%year%" -T "TRACKNUMBER=%tracknr%" -T "GENRE=%genre%" -T "PERFORMER=%albuminterpret%" -T "COMPOSER=%composer%" %haslyrics%--tag-from-file=LYRICS="%lyricsfile%"%haslyrics% -T "ALBUMARTIST=%albumartist%" -T "DISCNUMBER=%cdnumber%" -T "TOTALDISCS=%totalcds%" -T "TOTALTRACKS=%numtracks%" -T "COMMENT=%comment%" %source% -o %dest%

TOC of the extracted CD

Track | Start | Length | Start sector | End sector --------------------------------------------------------- 1 | 0:00.00 | 4:36.17 | 0 | 20716 2 | 4:36.17 | 3:58.62 | 20717 | 38628 3 | 8:35.04 | 3:52.24 | 38629 | 56052 4 | 12:27.28 | 3:09.65 | 56053 | 70292 5 | 15:37.18 | 3:52.02 | 70293 | 87694 6 | 19:29.20 | 3:57.54 | 87695 | 105523 7 | 23:26.74 | 4:57.10 | 105524 | 127808 8 | 28:24.09 | 2:02.54 | 127809 | 137012 9 | 30:26.63 | 3:20.12 | 137013 | 152024 10 | 33:47.00 | 3:21.62 | 152025 | 167161 11 | 37:08.62 | 3:11.31 | 167162 | 181517 12 | 40:20.18 | 3:33.39 | 181518 | 197531 13 | 43:53.57 | 4:15.73 | 197532 | 216729 14 | 48:09.55 | 4:31.52 | 216730 | 237106 15 | 52:41.32 | 5:36.16 | 237107 | 262322

Range status and errors

Selected range

Filename G:\CD\Emerson Lake & Palmer - Works Volume 2 (2011, 88697848642).wav

Peak level 97.7 % Extraction speed 4.0 X Range quality 99.9 % Test CRC B9D58BC6 Copy CRC B9D58BC6 Copy OK

No errors occurred

AccurateRip summary

Track 1 not present in databaseTrack 2 not present in databaseTrack 3 not present in databaseTrack 4 not present in databaseTrack 5 not present in databaseTrack 6 not present in databaseTrack 7 not present in databaseTrack 8 not present in databaseTrack 9 not present in databaseTrack 10 not present in databaseTrack 11 not present in databaseTrack 12 not present in databaseTrack 13 not present in databaseTrack 14 not present in databaseTrack 15 not present in database

None of the tracks are present in the AccurateRip database

End of status report

==== Log checksum B7059C8E181D4E5388597C0C708E23D23F740A354166E166B3685158C84074B0 ====

Amazon | Discogs
Треклист:
01. All I Want Is You - 2:37
02. Love Beach - 2:46
03. Taste Of My Love - 3:33
04. The Gambler - 3:23
05. For You - 4:28
06. Canario - 4:01
07. Memoirs Of An Officer And A Gentleman - 20:20
i. Prologue / The Education of a Gentleman
ii. Love at First Sight
iii. Letters from the Front
iv. Honourable Company (A March) Bonus Track:
08. Canario (Rehearsal 1978) - 4:39
09. Taste Of My Love (Rehearsal 1978) - 3:01
10. Letters From The Front (Rehearsal 1978) - 8:55
Exact Audio Copy V1.0 beta 3 from 29. August 2011

EAC extraction logfile from 12. October 2012, 20:24

Emerson, Lake & Palmer / Love Beach (2011, 88697848662)

Used drive : Optiarc DVD RW AD-5200S Adapter: 2 ID: 0

Read mode : SecureUtilize accurate stream : YesDefeat audio cache : YesMake use of C2 pointers : No

Read offset correction : 48Overread into Lead-In and Lead-Out : NoFill up missing offset samples with silence : YesDelete leading and trailing silent blocks : NoNull samples used in CRC calculations : YesUsed interface : Native Win32 interface for Win NT & 2000

Used output format : User Defined EncoderSelected bitrate : 1024 kBit/sQuality : HighAdd ID3 tag : NoCommand line compressor : C:\Program Files (x86)\Exact Audio Copy\FLAC\FLAC.EXEAdditional command line options : -8 -V -T "ARTIST=%artist%" -T "TITLE=%title%" -T "ALBUM=%albumtitle%" -T "DATE=%year%" -T "TRACKNUMBER=%tracknr%" -T "GENRE=%genre%" -T "PERFORMER=%albuminterpret%" -T "COMPOSER=%composer%" %haslyrics%--tag-from-file=LYRICS="%lyricsfile%"%haslyrics% -T "ALBUMARTIST=%albumartist%" -T "DISCNUMBER=%cdnumber%" -T "TOTALDISCS=%totalcds%" -T "TOTALTRACKS=%numtracks%" -T "COMMENT=%comment%" %source% -o %dest%

TOC of the extracted CD

Track | Start | Length | Start sector | End sector --------------------------------------------------------- 1 | 0:00.00 | 2:36.44 | 0 | 11743 2 | 2:36.44 | 2:46.06 | 11744 | 24199 3 | 5:22.50 | 3:32.62 | 24200 | 40161 4 | 8:55.37 | 3:23.03 | 40162 | 55389 5 | 12:18.40 | 4:27.49 | 55390 | 75463 6 | 16:46.14 | 4:01.07 | 75464 | 93545 7 | 20:47.21 | 20:19.51 | 93546 | 185021 8 | 41:06.72 | 4:38.58 | 185022 | 205929 9 | 45:45.55 | 3:01.09 | 205930 | 219513 10 | 48:46.64 | 8:54.68 | 219514 | 259631

Range status and errors

Selected range

Filename G:\CD\Emerson, Lake & Palmer - Love Beach (2011, 88697848662).wav

Peak level 96.6 % Extraction speed 4.0 X Range quality 99.9 % Test CRC 6677D03B Copy CRC 6677D03B Copy OK

No errors occurred

AccurateRip summary

Track 1 accurately ripped (confidence 1) [9C9C3245] (AR v1)Track 2 accurately ripped (confidence 1) [CE73B9B3] (AR v1)Track 3 accurately ripped (confidence 1) [5C39DA6B] (AR v1)Track 4 accurately ripped (confidence 1) [A55BA4AE] (AR v1)Track 5 accurately ripped (confidence 1) [4ADD88EA] (AR v1)Track 6 accurately ripped (confidence 1) [176D07B6] (AR v1)Track 7 accurately ripped (confidence 1) [A5C436EC] (AR v1)Track 8 accurately ripped (confidence 1) [B3841792] (AR v1)Track 9 accurately ripped (confidence 1) [8DD5970D] (AR v1)Track 10 accurately ripped (confidence 1) [D2C80ECC] (AR v1)

All tracks accurately ripped

End of status report

==== Log checksum B8EEA71DF10A9025F4EC8761E58CE3C1C735287D57B25F7FE09447C83EA485A9 ====

Amazon | Discogs
Треклист:
01. Black Moon - 7:00
02. Paper Blood - 4:29
03. Affairs of the Heart - 3:47
04. Romeo and Juliet - 3:43
05. Farewell to Arms - 5:11
06. Changing States - 6:02
07. Burning Bridges - 4:46
08. Close to Home - 4:29
09. Better Days - 5:36
10. Footprints in the Snow - 3:52Bonus Track:
11. Black Moon (Single Edit) - 4:49
12. Affairs of the Heart (Edit) - 2:23
13. Paper Blood (Edit) - 1:36
14. Romeo and Juliet (Edit) - 1:35
Exact Audio Copy V1.0 beta 3 from 29. August 2011

EAC extraction logfile from 12. October 2012, 21:06

Emerson Lake & Palmer / Black Moon (2011, 88697848682)

Used drive : Optiarc DVD RW AD-5200S Adapter: 2 ID: 0

Read mode : SecureUtilize accurate stream : YesDefeat audio cache : YesMake use of C2 pointers : No

Read offset correction : 48Overread into Lead-In and Lead-Out : NoFill up missing offset samples with silence : YesDelete leading and trailing silent blocks : NoNull samples used in CRC calculations : YesUsed interface : Native Win32 interface for Win NT & 2000

Used output format : User Defined EncoderSelected bitrate : 1024 kBit/sQuality : HighAdd ID3 tag : NoCommand line compressor : C:\Program Files (x86)\Exact Audio Copy\FLAC\FLAC.EXEAdditional command line options : -8 -V -T "ARTIST=%artist%" -T "TITLE=%title%" -T "ALBUM=%albumtitle%" -T "DATE=%year%" -T "TRACKNUMBER=%tracknr%" -T "GENRE=%genre%" -T "PERFORMER=%albuminterpret%" -T "COMPOSER=%composer%" %haslyrics%--tag-from-file=LYRICS="%lyricsfile%"%haslyrics% -T "ALBUMARTIST=%albumartist%" -T "DISCNUMBER=%cdnumber%" -T "TOTALDISCS=%totalcds%" -T "TOTALTRACKS=%numtracks%" -T "COMMENT=%comment%" %source% -o %dest%

TOC of the extracted CD

Track | Start | Length | Start sector | End sector --------------------------------------------------------- 1 | 0:00.00 | 6:59.63 | 0 | 31487 2 | 6:59.63 | 4:28.58 | 31488 | 51645 3 | 11:28.46 | 3:47.04 | 51646 | 68674 4 | 15:15.50 | 3:42.60 | 68675 | 85384 5 | 18:58.35 | 5:10.41 | 85385 | 108675 6 | 24:09.01 | 6:02.01 | 108676 | 135826 7 | 30:11.02 | 4:45.66 | 135827 | 157267 8 | 34:56.68 | 4:29.17 | 157268 | 177459 9 | 39:26.10 | 5:36.05 | 177460 | 202664 10 | 45:02.15 | 3:52.15 | 202665 | 220079 11 | 48:54.30 | 4:48.52 | 220080 | 241731 12 | 53:43.07 | 2:22.51 | 241732 | 252432 13 | 56:05.58 | 1:35.55 | 252433 | 259612 14 | 57:41.38 | 1:35.28 | 259613 | 266765

Range status and errors

Selected range

Filename G:\CD\Emerson Lake & Palmer - Black Moon (2011, 88697848682).wav

Peak level 97.0 % Extraction speed 4.1 X Range quality 100.0 % Test CRC 6D8EEDC2 Copy CRC 6D8EEDC2 Copy OK

No errors occurred

AccurateRip summary

Track 1 accurately ripped (confidence 1) [C4B543C8] (AR v1)Track 2 accurately ripped (confidence 1) [43B7694F] (AR v1)Track 3 accurately ripped (confidence 1) [5A054372] (AR v1)Track 4 accurately ripped (confidence 1) [7C9B54EC] (AR v1)Track 5 accurately ripped (confidence 1) [C29DDFAD] (AR v1)Track 6 accurately ripped (confidence 1) [02D23C54] (AR v1)Track 7 accurately ripped (confidence 1) [A102491A] (AR v1)Track 8 accurately ripped (confidence 1) [ED669CBE] (AR v1)Track 9 accurately ripped (confidence 1) [276757A3] (AR v1)Track 10 accurately ripped (confidence 1) [ED4521B8] (AR v1)Track 11 accurately ripped (confidence 1) [A9E9D57E] (AR v1)Track 12 accurately ripped (confidence 1) [818979BF] (AR v1)Track 13 accurately ripped (confidence 1) [24054595] (AR v1)Track 14 accurately ripped (confidence 1) [3EAB0A08] (AR v1)

All tracks accurately ripped

End of status report

==== Log checksum C4D6C1D196473D3D88247C3B9AB5C670833065728F1E1050B1BEA2C2AA4D454D ====

Amazon | Discogs
Треклист:
01. Hand Of Truth - 5:25
02. Daddy - 4:44
03. One By One - 5:10
04. Heart On Ice - 4:22
05. Thin Line - 4:48
06. Man In The Long Black Coat - 4:14
07. Change - 4:46
08. Give Me A Reason To Stay - 4:17
09. Gone Too Soon - 4:13
10. Street War - 4:27Bonus Track:
11. Pictures At An Exhibition - 15:30
A. Promenade
B. The Gnome
C. Promenade
D. The Sage
E. The Hut of Baba Yaga
F. The Great Gates of Kiev
Exact Audio Copy V1.0 beta 3 from 29. August 2011

EAC extraction logfile from 12. October 2012, 21:40

Emerson, Lake & Palmer / In The Hot Seat (2011, 88697848692)

Used drive : Optiarc DVD RW AD-5200S Adapter: 2 ID: 0

Read mode : SecureUtilize accurate stream : YesDefeat audio cache : YesMake use of C2 pointers : No

Read offset correction : 48Overread into Lead-In and Lead-Out : NoFill up missing offset samples with silence : YesDelete leading and trailing silent blocks : NoNull samples used in CRC calculations : YesUsed interface : Native Win32 interface for Win NT & 2000

Used output format : User Defined EncoderSelected bitrate : 1024 kBit/sQuality : HighAdd ID3 tag : NoCommand line compressor : C:\Program Files (x86)\Exact Audio Copy\FLAC\FLAC.EXEAdditional command line options : -8 -V -T "ARTIST=%artist%" -T "TITLE=%title%" -T "ALBUM=%albumtitle%" -T "DATE=%year%" -T "TRACKNUMBER=%tracknr%" -T "GENRE=%genre%" -T "PERFORMER=%albuminterpret%" -T "COMPOSER=%composer%" %haslyrics%--tag-from-file=LYRICS="%lyricsfile%"%haslyrics% -T "ALBUMARTIST=%albumartist%" -T "DISCNUMBER=%cdnumber%" -T "TOTALDISCS=%totalcds%" -T "TOTALTRACKS=%numtracks%" -T "COMMENT=%comment%" %source% -o %dest%

TOC of the extracted CD

Track | Start | Length | Start sector | End sector --------------------------------------------------------- 1 | 0:00.00 | 5:25.02 | 0 | 24376 2 | 5:25.02 | 4:44.27 | 24377 | 45703 3 | 10:09.29 | 5:09.44 | 45704 | 68922 4 | 15:18.73 | 4:21.40 | 68923 | 88537 5 | 19:40.38 | 4:47.49 | 88538 | 110111 6 | 24:28.12 | 4:14.24 | 110112 | 129185 7 | 28:42.36 | 4:45.54 | 129186 | 150614 8 | 33:28.15 | 4:16.60 | 150615 | 169874 9 | 37:45.00 | 4:13.15 | 169875 | 188864 10 | 41:58.15 | 4:26.66 | 188865 | 208880 11 | 46:25.06 | 15:29.66 | 208881 | 278621

Range status and errors

Selected range

Filename G:\CD\Emerson, Lake & Palmer - In The Hot Seat (2011, 88697848692).wav

Peak level 94.4 % Extraction speed 4.3 X Range quality 100.0 % Test CRC 3DB85442 Copy CRC 3DB85442 Copy OK

No errors occurred

AccurateRip summary

Track 1 accurately ripped (confidence 1) [58AC640A] (AR v2)Track 2 accurately ripped (confidence 1) [FC43C308] (AR v2)Track 3 accurately ripped (confidence 1) [A0944417] (AR v2)Track 4 accurately ripped (confidence 1) [BC62F2BF] (AR v2)Track 5 accurately ripped (confidence 1) [7831BE72] (AR v2)Track 6 accurately ripped (confidence 1) [21A5EB7C] (AR v2)Track 7 accurately ripped (confidence 1) [30150C04] (AR v2)Track 8 accurately ripped (confidence 1) [FD86D3B3] (AR v2)Track 9 accurately ripped (confidence 1) [67CD1167] (AR v2)Track 10 accurately ripped (confidence 1) [6FFE4126] (AR v2)Track 11 accurately ripped (confidence 1) [F9481BEF] (AR v2)

All tracks accurately ripped

End of status report

==== Log checksum F5C5A5396CC6EC324967002F9C47D3CD8634FF779B93D59A4B2D3A069E6F109A ====
Live Albums

Amazon | Discogs
Треклист:
01. Promenade - 1:58
02. The Gnome - 4:16
03. Promenade - 1:23
04. The Sage - 4:40
05. The Old Castle - 2:31
06. Blues Variation - 4:18
07. Promenade - 1:31
08. The Hut of Baba Yaga - 1:12
09. The Curse of Baba Yaga - 4:09
10. The Hut of Baba Yaga (Part 2) - 1:06
11. The Great Gates of Kiev - 6:37
12. Nut Rocker - 4:23Bonus Track:
13. Pictures At An Exhibition - 15:29
13-a. Promenade
13-b. The Gnome
13-c. Promenade
13-d. The Sage
13-e. The Hut Of Baba Yaga
13-f. The Great Gates Of Kiev
Exact Audio Copy V1.0 beta 1 from 15. November 2010

EAC extraction logfile from 14. September 2012, 23:52

Emerson, Lake & Palmer / Pictures At An Exhibition (886978301123)

Used drive : Optiarc DVD RW AD-5200S Adapter: 2 ID: 0

Read mode : SecureUtilize accurate stream : YesDefeat audio cache : YesMake use of C2 pointers : No

Read offset correction : 48Overread into Lead-In and Lead-Out : NoFill up missing offset samples with silence : YesDelete leading and trailing silent blocks : NoNull samples used in CRC calculations : YesUsed interface : Native Win32 interface for Win NT & 2000

Used output format : User Defined EncoderSelected bitrate : 1024 kBit/sQuality : HighAdd ID3 tag : NoCommand line compressor : C:\Program Files (x86)\Exact Audio Copy\FLAC\FLAC.EXEAdditional command line options : -8 -V %s

TOC of the extracted CD

Track | Start | Length | Start sector | End sector --------------------------------------------------------- 1 | 0:00.48 | 1:57.47 | 48 | 8869 2 | 1:58.20 | 4:16.26 | 8870 | 28095 3 | 6:14.46 | 1:22.74 | 28096 | 34319 4 | 7:37.45 | 4:40.26 | 34320 | 55345 5 | 12:17.71 | 2:31.28 | 55346 | 66698 6 | 14:49.24 | 4:18.35 | 66699 | 86083 7 | 19:07.59 | 1:30.43 | 86084 | 92876 8 | 20:38.27 | 1:12.28 | 92877 | 98304 9 | 21:50.55 | 4:09.06 | 98305 | 116985 10 | 25:59.61 | 1:06.31 | 116986 | 121966 11 | 27:06.17 | 6:37.28 | 121967 | 151769 12 | 33:43.45 | 4:23.36 | 151770 | 171530 13 | 38:07.06 | 15:29.33 | 171531 | 241238

Range status and errors

Selected range

Filename G:\Download\Музыка LossLess\Emerson, Lake & Palmer\1972 - Pictures At An Exhibition (2011, Sony Music. 886978301123)\Emerson, Lake & Palmer - Pictures At An Exhibition (886978301123).wav

Peak level 96.6 % Extraction speed 1.1 X Range quality 100.0 % Test CRC E9C75F27 Copy CRC E9C75F27 Copy OK

No errors occurred

AccurateRip summary

Track 1 accurately ripped (confidence 5) [EC4ACCD8]Track 2 accurately ripped (confidence 5) [729F0FD3]Track 3 accurately ripped (confidence 5) [5F05493C]Track 4 accurately ripped (confidence 5) [7A5B6BA3]Track 5 accurately ripped (confidence 5) [03A39AD0]Track 6 accurately ripped (confidence 5) [8A2F4290]Track 7 accurately ripped (confidence 5) [484097DD]Track 8 accurately ripped (confidence 5) [5D34B205]Track 9 accurately ripped (confidence 5) [F1B7A7B1]Track 10 accurately ripped (confidence 5) [6E815F89]Track 11 accurately ripped (confidence 5) [109C2E44]Track 12 accurately ripped (confidence 5) [F21F157D]Track 13 accurately ripped (confidence 5) [B47195F3]

All tracks accurately ripped

End of status report


Трекер:  [ 14-Окт-2012 11:19 ]

  

Скачать .torrent

Размер .torrent файла 39 KB


Размер: 3.9 GB
Хэш (hash) релиза: b00ebeba5922f7884862a2de6c6380f099df922e

Еще никто не оставлял запись к записи скачать торрент Emerson, Lake & Palmer ELP - Коллекция . Будь первым!

!Обратная связь