Скачать через торрент музыку Ashra - Correlations - 2008, FLAC бесплатно без регистрации torrent

Если у вас наблюдаются проблемы со скриншотами, переходом по ссылками, скачиванием торрентов - проблемы в блокировщике рекламы AdBlock. #хорошегоДня!


Статистика раздачи
Размер:  257 MB   |    Зарегистрирован:  4 года 10 месяцев   |    .torrent скачан:  10 раз   |   
Раздают:  1  
   
Загрузка...
 
Автор Сообщение

Galfimbul

avatar Galfimbul


Ashra / Correlations

Жанр: Progressive rock, Krautrock
Страна-производитель диска: Japan
Год издания: 2008
Издатель (лейбл): MG.ART
Номер по каталогу: MG.ART 215
Страна: Германия
Аудиокодек: FLAC (*.flac)
Тип рипа: image+.cue
Битрейт аудио: lossless
Продолжительность: 42:08
Источник (релизер): Собственный рип
Наличие сканов в содержимом раздачи: да
Треклист:
1. Ice Train 7:40
2. Club Cannibal 5:24
3. Oasis 3:46
4. Bamboo Sands 5:40
5. Morgana da Capo 5:29
6. Pas de Trois 8:58
7. Phantasus 5:11
Grosskopf, Harald (drums, percussion, synthesizer)
Göttsching, Manuel (guitar, synthesizer, sequencer)
Ulbrich, Lutz (guitar, synthesizer, piano, mellotron)
Exact Audio Copy V1.0 beta 1 from 15. November 2010

EAC extraction logfile from 13. October 2012, 18:07

Ashra / Correlations

Used drive : Optiarc DVD RW AD-7263S Adapter: 3 ID: 0

Read mode : SecureUtilize accurate stream : YesDefeat audio cache : YesMake use of C2 pointers : No

Read offset correction : 48Overread into Lead-In and Lead-Out : NoFill up missing offset samples with silence : YesDelete leading and trailing silent blocks : NoNull samples used in CRC calculations : YesUsed interface : Native Win32 interface for Win NT & 2000

Used output format : User Defined EncoderSelected bitrate : 32 kBit/sQuality : HighAdd ID3 tag : NoCommand line compressor : C:\Program Files\Exact Audio Copy\Flac\flac.exeAdditional command line options : -T "DATE=%y" -T "GENRE=%m" -8 -V %s

TOC of the extracted CD

Track | Start | Length | Start sector | End sector --------------------------------------------------------- 1 | 0:00.00 | 7:40.44 | 0 | 34543 2 | 7:40.44 | 5:25.45 | 34544 | 58963 3 | 13:06.14 | 3:45.50 | 58964 | 75888 4 | 16:51.64 | 5:39.12 | 75889 | 101325 5 | 22:31.01 | 5:29.07 | 101326 | 126007 6 | 28:00.08 | 8:59.74 | 126008 | 166506 7 | 37:00.07 | 5:07.49 | 166507 | 189580

Range status and errors

Selected range

Filename C:\Documents and Settings\maxim\Мои документы\Моя музыка\Ashra - Correlations.wav

Peak level 100.0 % Extraction speed 0.4 X Range quality 100.0 % Test CRC 1018570E Copy CRC 1018570E Copy OK

No errors occurred

AccurateRip summary

Track 1 accurately ripped (confidence 1) [F34C33F8]Track 2 accurately ripped (confidence 1) [A8FE9BA1]Track 3 accurately ripped (confidence 1) [42B8B9F2]Track 4 accurately ripped (confidence 1) [25F0904B]Track 5 accurately ripped (confidence 1) [C07885E0]Track 6 accurately ripped (confidence 1) [D67F49D1]Track 7 accurately ripped (confidence 1) [5109403B]

All tracks accurately ripped

End of status report

==== Log checksum A92C290AD5A929F76748A1EE8D25A2B11CB0A5CA1D9D6F20AF1C5D570E8FCD96 ====
Доп. информация: Comes in a CD sized papersleeve album replica, with Obi-strip and insert of notes mostly in Japanese.
'Original recording in May 1978, Berlin'
(Track times taken from back-cover. Track times printed on Obi-strip are wrong).
Design [Sleeve], Photography By – Hipgnosis
Drums, Percussion, Synthesizer, Effects [Sounds] – Harald Grosskopf
Electric Guitar [Electronic], Synthesizer, Sequenced By [Sequencer], Compiled By – Manuel Göttsching
Engineer – Eberhard Panne (tracks: 1, 3), Udo Arndt (tracks: 2, 4 to 7)
Engineer [Premix] – Udo Arndt
Engineer [Remix] – Eberhard Panne, Mick Glossop
Guitar, Synthesizer [String], Piano, Mellotron – Lutz Ulbrich
Photography By [Of Ashra] – Detlef Maugsch
Producer – Ashra, Mick Glossop
Written-By – Grosskopf (tracks: 1, 2, 5, 6), Ulbrich (tracks: 1, 2, 5, 6), Göttsching


Трекер:  [ 14-Окт-2012 11:19 ]

  

Скачать .torrent

Размер .torrent файла 11 KB


Размер: 257 MB
Хэш (hash) релиза: 13cab62c19de27badf6e271c46153ab1e6d5047b

Еще никто не оставлял запись к записи скачать торрент Ashra - Correlations - 2008, FLAC . Будь первым!

!Обратная связь