Скачать через торрент музыку Dilemma - Imbroccata бесплатно без регистрации torrent

Если у вас наблюдаются проблемы со скриншотами, переходом по ссылками, скачиванием торрентов - проблемы в блокировщике рекламы AdBlock. #хорошегоДня!


Статистика раздачи
Размер:  418 MB   |    Зарегистрирован:  4 года 10 месяцев   |    .torrent скачан:  23 раза   |   
Раздают:  1  
   
Загрузка...
 
Автор Сообщение

Galfimbul

avatar Galfimbul


Dilemma - Imbroccata

Жанр: Heavy Prog
Год выпуска диска: 1995
Страна: Netherlands
Label: SI Music
Catalog Nr.: SI3068-2
Аудио кодек: FLAC
Тип рипа: image+.cue (test&copy)
Битрейт аудио: lossless
Продолжительность: 53:53
Источник: свой старый рип


Трэклист:

1. Believe (9.58)
2. Rock Blossom (A Second Generation State Of Grace) (6.08)
3. Duck - 6.12
4. The Horror Of Time Travel (8.33)
5. Spiral (1.00)
6. In The Trap Of The Gods (4.08)
7. Vampire (4.33)
8. Goodbye Cruel Word (5.37)
9. Go On (7.40 )

Total time: 53:53

Музыканты:

- Butler - lead vocals & effects
- Toll - guitar
- Robin Z. - keyboards
- Allan Case - bass & backing vocals
- Frank van Essen - drums, violin & backing vocals
Exact Audio Copy V0.99 prebeta 5 from 4. May 2009

EAC extraction logfile from 9. November 2010, 0:23

Dilemma / Imbroccata

Used drive : ASUS DRW-20B1ST Adapter: 1 ID: 0

Read mode : Secure
Utilize accurate stream : Yes
Defeat audio cache : Yes
Make use of C2 pointers : No

Read offset correction : 6
Overread into Lead-In and Lead-Out : No
Fill up missing offset samples with silence : Yes
Delete leading and trailing silent blocks : No
Null samples used in CRC calculations : Yes
Used interface : Native Win32 interface for Win NT & 2000

Used output format : User Defined Encoder
Selected bitrate : 1024 kBit/s
Quality : High
Add ID3 tag : Yes
Command line compressor : C:\Program Files (x86)\FLAC\flac.exe
Additional command line options : -6 -V -T "ARTIST=%a" -T "TITLE=%t" -T "ALBUM=%g" -T "DATE=%y" -T "TRACKNUMBER=%n" -T "GENRE=%m" -T "COMMENT=%e" %s -o %d

TOC of the extracted CD

Track | Start | Length | Start sector | End sector
---------------------------------------------------------
1 | 0:00.00 | 9:56.25 | 0 | 44724
2 | 9:56.25 | 6:08.70 | 44725 | 72394
3 | 16:05.20 | 6:14.20 | 72395 | 100464
4 | 22:19.40 | 8:31.40 | 100465 | 138829
5 | 30:51.05 | 1:00.17 | 138830 | 143346
6 | 31:51.22 | 4:08.63 | 143347 | 162009
7 | 36:00.10 | 4:33.10 | 162010 | 182494
8 | 40:33.20 | 5:37.22 | 182495 | 207791
9 | 46:10.42 | 7:42.33 | 207792 | 242474

Range status and errors

Selected range

Filename Y:\EAC\wurensh\Dilemma\Dilemma - Imbroccata (1995)\Dilemma - Imbroccata.wav

Peak level 100.0 %
Range quality 99.9 %
Test CRC C76D1BEC
Copy CRC C76D1BEC
Copy OK

No errors occurred

AccurateRip summary

Track 1 accurately ripped (confidence 2) [F57F67DB]
Track 2 accurately ripped (confidence 3) [1400ACBB]
Track 3 accurately ripped (confidence 2) [671B55DB]
Track 4 accurately ripped (confidence 2) [E9120B72]
Track 5 accurately ripped (confidence 2) [EC7AB065]
Track 6 accurately ripped (confidence 2) [1B2F8408]
Track 7 accurately ripped (confidence 2) [5AF3F752]
Track 8 accurately ripped (confidence 3) [0742105C]
Track 9 accurately ripped (confidence 2) [80B0EAC4]

All tracks accurately ripped

End of status report
[CUETools log; Date: 13.10.2012 22:37:56; Version: 2.1.4]
[CTDB TOCID: gLKcJigDlkTzt2WRpce_VYXCsKc-] disk not present in database.
[AccurateRip ID: 0013c0c6-008ba494-810ca109] found.
Track [ CRC | V2 ] Status
01 [f57f67db|aefc89d7] (3+0/3) Accurately ripped
02 [1400acbb|4309999f] (4+0/4) Accurately ripped
03 [671b55db|64e3d2fc] (3+0/3) Accurately ripped
04 [e9120b72|b7d956e4] (3+0/3) Accurately ripped
05 [ec7ab065|b7267d21] (3+0/3) Accurately ripped
06 [1b2f8408|04e35f8f] (3+0/3) Accurately ripped
07 [5af3f752|24dca47f] (3+0/3) Accurately ripped
08 [0742105c|a4fbfe80] (4+0/4) Accurately ripped
09 [80b0eac4|a7e1b499] (3+0/3) Accurately ripped

Track Peak [ CRC32 ] [W/O NULL] [ LOG ]
-- 100,0 [C76D1BEC] [0901051D] CRC32
01 100,0 [A0CADF85] [5B7438E0]
02 100,0 [7FBB481C] [354059DA]
03 100,0 [0B0BBDCA] [08C86EA2]
04 100,0 [DC0E8985] [1BB238D3]
05 100,0 [69026785] [B66EE029]
06 100,0 [103F7004] [35372C91]
07 100,0 [A3C8C509] [2BE25EF3]
08 100,0 [B3ACBDD5] [076C6FDF]
09 100,0 [E1A7154D] [B0C36C63]
Коврики 300dpi в комплекте.
Progarchives info

Трекер:  [ 14-Окт-2012 11:19 ]

  

Скачать .torrent

Размер .torrent файла 17 KB


Размер: 418 MB
Хэш (hash) релиза: 54bc4a45b6c14378f30676485b6bcb37cbde8cef

Еще никто не оставлял запись к записи скачать торрент Dilemma - Imbroccata . Будь первым!

!Обратная связь