Скачать через торрент музыку The Mariners - Demon Surf - 2012, FLAC бесплатно без регистрации torrent

Если у вас наблюдаются проблемы со скриншотами, переходом по ссылками, скачиванием торрентов - проблемы в блокировщике рекламы AdBlock. #хорошегоДня!


Статистика раздачи
Размер:  245 MB   |    Зарегистрирован:  4 года 10 месяцев   |    .torrent скачан:  4 раза   |   
Раздают:  1  
   
Загрузка...
 
Автор Сообщение

Galfimbul

avatar Galfimbul


The Mariners

Demon Surf

Жанр: Surf
Страна-производитель диска: USA
Год издания: 2012
Аудиокодек: FLAC (*.flac)
Тип рипа: image+.cue
Битрейт аудио: lossless
Продолжительность: 35:23
Источник (релизер): ©СЁРФ-Маrаtones aka izia1956
Наличие сканов в содержимом раздачи: да



01. Logjam At Pleasure Point (2:46)
02. Undertow (3:15)
03. Objection (Tango) (3:17)
04. Demon Surf! (2:20)
05. The Last Mariner (2:54)
06. Trail of Tears (2:42)
07. Vacation On the Titanic (2:30)
08. Dance of the Cobra (3:14)
09. Shennie Beach (2:13)
10. Walk, Don't Run '64 (2:22)
11. El Camino a Baja (2:05)
12. Collision Course (2:23)
13. Geronimo (3:17)

Exact Audio Copy V0.99 prebeta 5 from 4. May 2009

Отчёт EAC об извлечении, выполненном 13. октября 2012, 3:05

The Mariners / Demon Surf

Дисковод: PLEXTOR DVDR PX-880SA Adapter: 1 ID: 0

Режим чтения : ДостоверностьИспользование точного потока : ДаОтключение кэша аудио : ДаИспользование указателей C2 : Нет

Коррекция смещения при чтении : 6Способность читать области Lead-in и Lead-out : НетЗаполнение пропущенных сэмплов тишиной : ДаУдаление блоков с тишиной в начале и конце : НетПри вычислениях CRC использовались нулевые сэмплы : ДаИнтерфейс : Установленный внешний ASPI-интерфейс

Выходной формат : Пользовательский кодировщикВыбранный битрейт : 1024 kBit/sКачество : ВысокийДобавление ID3-тэга : НетУтилита сжатия : C:\Program Files\Exact Audio Copy\FLAC\FLAC.EXEДополнительные параметры : -6 -V -T "ARTIST=%a" -T "TITLE=%t" -T "ALBUM=%g" -T "DATE=%y" -T "TRACKNUMBER=%n" -T "GENRE=%m" -T "COMMENT=%e" %s -o %d

TOC извлечённого CD

Трек | Старт | Длительность | Начальный сектор | Конечный сектор --------------------------------------------------------------------- 1 | 0:00.00 | 2:46.16 | 0 | 12465 2 | 2:46.16 | 3:15.23 | 12466 | 27113 3 | 6:01.39 | 3:17.64 | 27114 | 41952 4 | 9:19.28 | 2:20.09 | 41953 | 52461 5 | 11:39.37 | 2:54.14 | 52462 | 65525 6 | 14:33.51 | 2:42.25 | 65526 | 77700 7 | 17:16.01 | 2:30.67 | 77701 | 89017 8 | 19:46.68 | 3:14.37 | 89018 | 103604 9 | 23:01.30 | 2:13.03 | 103605 | 113582 10 | 25:14.33 | 2:22.25 | 113583 | 124257 11 | 27:36.58 | 2:05.69 | 124258 | 133701 12 | 29:42.52 | 2:23.67 | 133702 | 144493 13 | 32:06.44 | 3:17.09 | 144494 | 159277

Характеристики диапазона извлечения и сообщения об ошибках

Выбранный диапазон

Имя файла F:\BitComet\The Mariners - Demon Surf(2012)(flac)\The Mariners - Demon Surf.wav

Пиковый уровень 100.0 % Качество диапазона 100.0 % CRC теста F5880DEB CRC копии F5880DEB Копирование... OK

Ошибок не произошло

AccurateRip: сводка

Трек 1 нет в базе данныхТрек 2 нет в базе данныхТрек 3 нет в базе данныхТрек 4 нет в базе данныхТрек 5 нет в базе данныхТрек 6 нет в базе данныхТрек 7 нет в базе данныхТрек 8 нет в базе данныхТрек 9 нет в базе данныхТрек 10 нет в базе данныхТрек 11 нет в базе данныхТрек 12 нет в базе данныхТрек 13 нет в базе данных

Ни одного трека нет в базе AccurateRip

Конец отчёта


Трекер:  [ 14-Окт-2012 11:19 ]

  

Скачать .torrent

Размер .torrent файла 20 KB


Размер: 245 MB
Хэш (hash) релиза: 41dd35f41d8b357dfffd2817dd4727fd103988a1

Еще никто не оставлял запись к записи скачать торрент The Mariners - Demon Surf - 2012, FLAC . Будь первым!

!Обратная связь