Скачать через торрент музыку Motley Crue: Saints Of Los Angeles бесплатно без регистрации torrent

Если у вас наблюдаются проблемы со скриншотами, переходом по ссылками, скачиванием торрентов - проблемы в блокировщике рекламы AdBlock. #хорошегоДня!


Статистика раздачи
Размер:  470 MB   |    Зарегистрирован:  4 года 10 месяцев   |    .torrent скачан:  20 раз   |   
Раздают:  1  
   
Загрузка...
 
Автор Сообщение

Galfimbul

avatar Galfimbul


Motley Crue: Saints Of Los Angeles

Жанр: Hard Rock
Страна-производитель диска: Germany
Год выхода альбома / издан на CD: 2008 / 2008
Издатель (лейбл): Motley Records
Номер по каталогу: ESM/MR 240
Аудиокодек: WavPack (*.wv)
Тип рипа: image+.cue
Битрейт аудио: lossless
Продолжительность: 44:09
Релизер / ресурс: ley-barmaley / lossless-galaxy.ru
Наличие сканов в содержимом раздачи: полное сканирование (JPG, 600dpi)

Треклист:
1. L.A.M.F.
2. Face Down In The Dirt
3. What's It Gonna Take
4. Down At The Whisky
5. Saints Of Los Angeles (Gang Vocal)
6. MF Of The Year
7. The Animal In Me
8. Welcome To The Machine
9. Just Another Psycho
10. Chicks = Trouble
11. This Ain't A Love Song
12. White Trash Circus
13. Goin' Out Swingin'
Exact Audio Copy V1.0 beta 3 from 29. August 2011

Отчёт EAC об извлечении, выполненном 7. сентября 2012, 15:35

Motley Crue / Saints Of Los Angeles (Motley Records, ESM-MR 240, Germany)

Дисковод: ASUS DRW-1814BL Adapter: 0 ID: 0

Режим чтения : ДостоверностьИспользование точного потока : ДаОтключение кэша аудио : ДаИспользование указателей C2 : Нет

Коррекция смещения при чтении : 6Способность читать области Lead-in и Lead-out : НетЗаполнение пропущенных сэмплов тишиной : ДаУдаление блоков с тишиной в начале и конце : НетПри вычислениях CRC использовались нулевые сэмплы : ДаИнтерфейс : Встроенный Win32-интерфейс для Win NT/2000

Выходной формат : Внутренние WAV-операцииФормат сэмплов : 44.100 Гц; 16 бит; стерео

TOC извлечённого CD

Трек | Старт | Длительность | Начальный сектор | Конечный сектор --------------------------------------------------------------------- 1 | 0:00.00 | 1:21.09 | 0 | 6083 2 | 1:21.09 | 3:44.59 | 6084 | 22942 3 | 5:05.68 | 3:45.07 | 22943 | 39824 4 | 8:51.00 | 3:50.23 | 39825 | 57097 5 | 12:41.23 | 3:40.33 | 57098 | 73630 6 | 16:21.56 | 3:55.19 | 73631 | 91274 7 | 20:17.00 | 4:16.56 | 91275 | 110530 8 | 24:33.56 | 3:00.44 | 110531 | 124074 9 | 27:34.25 | 3:36.52 | 124075 | 140326 10 | 31:11.02 | 3:13.35 | 140327 | 154836 11 | 34:24.37 | 3:25.55 | 154837 | 170266 12 | 37:50.17 | 2:51.29 | 170267 | 183120 13 | 40:41.46 | 3:27.28 | 183121 | 198673

Характеристики диапазона извлечения и сообщения об ошибках

Выбранный диапазон

Имя файла G:\ley-barmaley\lossless-galaxy.ru\Motley Crue - Saints Of Los Angeles (Motley Records, ESM-MR 240, Germany).wav

Пиковый уровень 100.0 % Скорость извлечения 6.4 X Качество диапазона 100.0 % CRC теста CFED0849 CRC копии CFED0849 Копирование... OK

Ошибок не произошло

AccurateRip: сводка

Трек 1 : извлечено точно (доверие 5) [453349D6] (AR v2)Трек 2 : извлечено точно (доверие 5) [FE9B9B58] (AR v2)Трек 3 : извлечено точно (доверие 5) [9A1B38D4] (AR v2)Трек 4 : извлечено точно (доверие 5) [AB70929C] (AR v2)Трек 5 : извлечено точно (доверие 5) [ED03AD8D] (AR v2)Трек 6 : извлечено точно (доверие 5) [8D701E8E] (AR v2)Трек 7 : извлечено точно (доверие 5) [C4C027F3] (AR v2)Трек 8 : извлечено точно (доверие 5) [17DC2313] (AR v2)Трек 9 : извлечено точно (доверие 5) [379BD247] (AR v2)Трек 10 : извлечено точно (доверие 5) [B8FE934B] (AR v2)Трек 11 : извлечено точно (доверие 5) [B58DD11F] (AR v2)Трек 12 : извлечено точно (доверие 5) [2939D79A] (AR v2)Трек 13 : извлечено точно (доверие 5) [16AEDE49] (AR v2)

Все треки извлечены точно

Конец отчёта

---- CUETools DB Plugin V2.1.3

[CTDB TOCID: Byp5z00pLrtk9qrUmVUz8xuZVz8-] found, Submit result: Byp5z00pLrtk9qrUmVUz8xuZVz8- has been confirmed[faab77bd] (99/99) Accurately ripped

==== Контрольная сумма отчёта E11FDDE101E5AB84654D4BCBC4A8938B32299A64ECAC16FA4E3FC709CBC51E02 ====
-----------------------

DON'T MODIFY THIS FILE

-----------------------

PERFORMER: auCDtect Task Manager, ver. 1.5.1RC3 build 1.5.1.4Copyright (c) 2008-2010 y-soft. All rights reservedhttp://y-soft.org

ANALYZER: auCDtect: CD records authenticity detector, version 0.8.2Copyright (c) 2004 Oleg Berngardt. All rights reserved.Copyright (c) 2004 Alexander Djourik. All rights reserved.

FILE: Motley Crue - Saints Of Los Angeles (Motley Records, ESM-MR 240, Germany).wv Size: 353181144 Hash: 5F90FC1F2AB32A2ED092B6D4DC496416 Accuracy: -m0 Conclusion: CDDA 100% Signature: D2A57CEF4015B24C8A6F37481EE8B11CB8C591F1FILE: Motley Crue - Saints Of Los Angeles (Motley Records, ESM-MR 240, Germany).wav Size: 467281292 Hash: 5F90FC1F2AB32A2ED092B6D4DC496416 Accuracy: -m0 Conclusion: CDDA 100% Signature: F62F6248BF6A5A80F24C3B3E2FDD38FDC046794E



Трекер:  [ 14-Окт-2012 11:19 ]

  

Скачать .torrent

Размер .torrent файла 21 KB


Размер: 470 MB
Хэш (hash) релиза: cf5e3f7031892fcd08a86d0e3780a91aa97eecc5

Еще никто не оставлял запись к записи скачать торрент Motley Crue: Saints Of Los Angeles . Будь первым!

!Обратная связь