Скачать через торрент музыку The Innocents - The Complete Indigo Recordings 60-61 - 1992, бесплатно без регистрации torrent

Если у вас наблюдаются проблемы со скриншотами, переходом по ссылками, скачиванием торрентов - проблемы в блокировщике рекламы AdBlock. #хорошегоДня!


Статистика раздачи
Размер:  196 MB   |    Зарегистрирован:  5 лет   |    .torrent скачан:  4 раза   |   
Раздают:  1  
   
Загрузка...
 
Автор Сообщение

Galfimbul

avatar Galfimbul


The Innocents / The Complete Indigo Recordings


Жанр: Doo Wop
Страна-производитель диска: Germany
Год издания: 1992
Издатель (лейбл): Ace Records Ltd.
Номер по каталогу: CDCHD 374
Страна: USA
Аудиокодек: FLAC (*.flac)
Тип рипа: image+.cue
Битрейт аудио: lossless
Продолжительность: 45:09
Источник (релизер): AUDELAS KINGDOM
Наличие сканов в содержимом раздачи: да
01. Gee Whiz
02. Please Mr. Sun
03. Walking Along
04. Once in a While
05. Pain in My Heart
06. Chiquita
07. The Girl in My Dreams
08. Because I Love You
09. Sleeping Beauty
10. Donna
11. Kathy
12. My Baby Hully Gullys
13. Honest I Do
14. Beware
15. I'm a Hog for You
16. When I Became a Man
17. Two Young Hearts
18. Dee Dee Di Oh
19. I Believe in You
20. It Was a Tear
21. You Got Me Going
22. Little Blue Star
23. I Know a Valley
24. Time Makes You Change
25. In the Beginning
Exact Audio Copy V1.0 beta 2 from 29. April 2011

EAC extraction logfile from 12. October 2012, 20:19

The Innocents / The Complete Indigo Recordings

Used drive : _NEC DVD_RW ND-3550A Adapter: 1 ID: 0

Read mode : SecureUtilize accurate stream : YesDefeat audio cache : YesMake use of C2 pointers : No

Read offset correction : 48Overread into Lead-In and Lead-Out : NoFill up missing offset samples with silence : YesDelete leading and trailing silent blocks : NoNull samples used in CRC calculations : YesUsed interface : Native Win32 interface for Win NT & 2000

Used output format : User Defined EncoderSelected bitrate : 768 kBit/sQuality : HighAdd ID3 tag : NoCommand line compressor : C:\Program Files\Exact Audio Copy\FLAC\FLAC.EXEAdditional command line options : -6 -V -T "ARTIST=%artist%" -T "TITLE=%title%" -T "ALBUM=%albumtitle%" -T "DATE=%year%" -T "TRACKNUMBER=%tracknr%" -T "GENRE=%genre%" -T "COMMENT=%comment%" -T "BAND=%albuminterpret%" -T "COMPOSER=%composer%" %haslyrics%--ta

TOC of the extracted CD

Track | Start | Length | Start sector | End sector --------------------------------------------------------- 1 | 0:00.33 | 2:29.17 | 33 | 11224 2 | 2:29.50 | 3:18.63 | 11225 | 26137 3 | 5:48.38 | 1:40.32 | 26138 | 33669 4 | 7:28.70 | 3:23.55 | 33670 | 48949 5 | 10:52.50 | 2:41.35 | 48950 | 61059 6 | 13:34.10 | 2:02.45 | 61060 | 70254 7 | 15:36.55 | 2:38.45 | 70255 | 82149 8 | 18:15.25 | 2:12.13 | 82150 | 92062 9 | 20:27.38 | 2:00.57 | 92063 | 101119 10 | 22:28.20 | 2:44.23 | 101120 | 113442 11 | 25:12.43 | 2:42.37 | 113443 | 125629 12 | 27:55.05 | 2:05.18 | 125630 | 135022 13 | 30:00.23 | 2:32.12 | 135023 | 146434 14 | 32:32.35 | 3:07.70 | 146435 | 160529 15 | 35:40.30 | 1:59.48 | 160530 | 169502 16 | 37:40.03 | 2:28.72 | 169503 | 180674 17 | 40:09.00 | 3:05.30 | 180675 | 194579 18 | 43:14.30 | 2:11.00 | 194580 | 204404 19 | 45:25.30 | 2:58.00 | 204405 | 217754 20 | 48:23.30 | 2:43.58 | 217755 | 230037 21 | 51:07.13 | 2:44.32 | 230038 | 242369 22 | 53:51.45 | 3:01.05 | 242370 | 255949 23 | 56:52.50 | 3:08.45 | 255950 | 270094 24 | 60:01.20 | 2:13.15 | 270095 | 280084 25 | 62:14.35 | 2:21.23 | 280085 | 290682

Range status and errors

Selected range

Filename D:\Muzika\The Innocents - The Complete Indigo Recordings (1992)\The Innocents - The Complete Indigo Recordings.wav

Peak level 87.1 % Extraction speed 5.4 X Range quality 99.9 % Test CRC 9A5423B7 Copy CRC 9A5423B7 Copy OK

No errors occurred

AccurateRip summary

Track 1 not present in databaseTrack 2 cannot be verified as accurate (confidence 1) [3CA235AB], AccurateRip returned [C8FA70B8] (AR v2)Track 3 not present in databaseTrack 4 cannot be verified as accurate (confidence 1) [89E8CD76], AccurateRip returned [07A03966] (AR v2)Track 5 cannot be verified as accurate (confidence 1) [585EE449], AccurateRip returned [F260ECCD] (AR v2)Track 6 cannot be verified as accurate (confidence 1) [E1106515], AccurateRip returned [0BC7D51E] (AR v2)Track 7 cannot be verified as accurate (confidence 2) [686DE7C7], AccurateRip returned [686062E7] (AR v2)Track 8 cannot be verified as accurate (confidence 2) [25977B73], AccurateRip returned [04C538BF] (AR v2)Track 9 cannot be verified as accurate (confidence 1) [01B941F3], AccurateRip returned [AA2C31C0] (AR v2)Track 10 cannot be verified as accurate (confidence 1) [ED3B8055], AccurateRip returned [EFEDB052] (AR v2)Track 11 cannot be verified as accurate (confidence 1) [18D1464A], AccurateRip returned [4EBAEA1D] (AR v2)Track 12 cannot be verified as accurate (confidence 1) [06D4BFE4], AccurateRip returned [4020C16A] (AR v2)Track 13 cannot be verified as accurate (confidence 2) [C4666303], AccurateRip returned [7B8A350C] (AR v2)Track 14 cannot be verified as accurate (confidence 1) [939045F0], AccurateRip returned [4E16D73E] (AR v2)Track 15 cannot be verified as accurate (confidence 1) [24E1C143], AccurateRip returned [EC2C4E5A] (AR v2)Track 16 cannot be verified as accurate (confidence 1) [49460972], AccurateRip returned [74DC1946] (AR v2)Track 17 cannot be verified as accurate (confidence 1) [4F15DD62], AccurateRip returned [134391A1] (AR v2)Track 18 cannot be verified as accurate (confidence 1) [A9347A28], AccurateRip returned [3378F45A] (AR v2)Track 19 cannot be verified as accurate (confidence 1) [B0C1A0DB], AccurateRip returned [FCD7CC97] (AR v2)Track 20 cannot be verified as accurate (confidence 1) [404C2BFE], AccurateRip returned [B6156F70] (AR v2)Track 21 cannot be verified as accurate (confidence 1) [4FB3AD74], AccurateRip returned [60CE0CDD] (AR v2)Track 22 cannot be verified as accurate (confidence 1) [998DB152], AccurateRip returned [08C328C6] (AR v2)Track 23 cannot be verified as accurate (confidence 1) [69F7DE53], AccurateRip returned [8CB9771C] (AR v2)Track 24 cannot be verified as accurate (confidence 1) [D0CFD86F], AccurateRip returned [4B0713A3] (AR v2)Track 25 cannot be verified as accurate (confidence 1) [6293F1F1], AccurateRip returned [6DADFF4F] (AR v2)

23 track(s) could not be verified as accurate 2 track(s) not present in the AccurateRip database

No tracks could be verified as accurateYou may have a different pressing from the one(s) in the database

End of status report

==== Log checksum E7BF509E776CD2EF3770F496C91813A5AA5CBA7914255EB56B213D1A4B7CDF9D ====


Трекер:  [ 14-Окт-2012 11:16 ]

  

Скачать .torrent

Размер .torrent файла 16 KB


Размер: 196 MB
Хэш (hash) релиза: b72bcdaea88b43d5f72b92b3de4ca8acd089e72c

Еще никто не оставлял запись к записи скачать торрент The Innocents - The Complete Indigo Recordings 60-61 - 1992, . Будь первым!

!Обратная связь