Скачать через торрент музыку The Jive Aces - Our Kinda Jive - 2004, бесплатно без регистрации torrent

Если у вас наблюдаются проблемы со скриншотами, переходом по ссылками, скачиванием торрентов - проблемы в блокировщике рекламы AdBlock. #хорошегоДня!


Статистика раздачи
Размер:  304 MB   |    Зарегистрирован:  5 лет 1 месяц   |    .torrent скачан:  33 раза   |   
Раздают:  1  
   
Загрузка...
 
Автор Сообщение

Galfimbul

avatar Galfimbul


The Jive Aces / Our Kinda Jive


Жанр: Jump Jive / Neo Swing
Страна-производитель диска: UK
Год издания: 2004
Издатель (лейбл): Right Recordings Ltd.
Номер по каталогу: RIGHT033
Страна: UK
Аудиокодек: FLAC (*.flac)
Тип рипа: image+.cue
Битрейт аудио: lossless
Продолжительность: 52:00
Источник (релизер): AUDELAS KINGDOM
Наличие сканов в содержимом раздачи: да
01. Sunny Side Of The Street
02. Big Palooka
03. Like A Single Bookend
04. Is You Is
05. Just One Of Those Things
06. Still
07. Volare
08. Love Without Faith
09. Count The Seconds
10. Blues 4 U
11. All Of Me
12. Stick To Your Guns
13. Moondance
14. The Saints
Exact Audio Copy V1.0 beta 2 from 29. April 2011

EAC extraction logfile from 13. October 2012, 9:22

The Jive Aces / Our Kinda Jive

Used drive : _NEC DVD_RW ND-3550A Adapter: 1 ID: 0

Read mode : SecureUtilize accurate stream : YesDefeat audio cache : YesMake use of C2 pointers : No

Read offset correction : 48Overread into Lead-In and Lead-Out : NoFill up missing offset samples with silence : YesDelete leading and trailing silent blocks : NoNull samples used in CRC calculations : YesUsed interface : Native Win32 interface for Win NT & 2000

Used output format : User Defined EncoderSelected bitrate : 768 kBit/sQuality : HighAdd ID3 tag : NoCommand line compressor : C:\Program Files\Exact Audio Copy\FLAC\FLAC.EXEAdditional command line options : -6 -V -T "ARTIST=%artist%" -T "TITLE=%title%" -T "ALBUM=%albumtitle%" -T "DATE=%year%" -T "TRACKNUMBER=%tracknr%" -T "GENRE=%genre%" -T "COMMENT=%comment%" -T "BAND=%albuminterpret%" -T "COMPOSER=%composer%" %haslyrics%--ta

TOC of the extracted CD

Track | Start | Length | Start sector | End sector --------------------------------------------------------- 1 | 0:00.00 | 2:33.30 | 0 | 11504 2 | 2:33.30 | 2:18.06 | 11505 | 21860 3 | 4:51.36 | 2:53.23 | 21861 | 34858 4 | 7:44.59 | 2:43.62 | 34859 | 47145 5 | 10:28.46 | 3:05.52 | 47146 | 61072 6 | 13:34.23 | 4:51.22 | 61073 | 82919 7 | 18:25.45 | 4:44.54 | 82920 | 104273 8 | 23:10.24 | 2:39.15 | 104274 | 116213 9 | 25:49.39 | 2:42.32 | 116214 | 128395 10 | 28:31.71 | 6:31.49 | 128396 | 157769 11 | 35:03.45 | 3:37.22 | 157770 | 174066 12 | 38:40.67 | 3:47.45 | 174067 | 191136 13 | 42:28.37 | 4:25.14 | 191137 | 211025 14 | 46:53.51 | 5:04.53 | 211026 | 233878

Range status and errors

Selected range

Filename D:\Muzika\The Jive Aces - Our Kinda Jive (2004)\The Jive Aces - Our Kinda Jive.wav

Peak level 100.0 % Extraction speed 4.8 X Range quality 100.0 % Test CRC F0A340F5 Copy CRC F0A340F5 Copy OK

No errors occurred

AccurateRip summary

Track 1 not present in databaseTrack 2 not present in databaseTrack 3 not present in databaseTrack 4 not present in databaseTrack 5 not present in databaseTrack 6 not present in databaseTrack 7 not present in databaseTrack 8 not present in databaseTrack 9 not present in databaseTrack 10 not present in databaseTrack 11 not present in databaseTrack 12 not present in databaseTrack 13 not present in databaseTrack 14 not present in database

None of the tracks are present in the AccurateRip database

End of status report

==== Log checksum 4F6B148706BF5177E649DA7372B4BD27DCAC7D306F225D76077AFECC9D8CA86A ====


Трекер:  [ 14-Окт-2012 11:16 ]

  

Скачать .torrent

Размер .torrent файла 12 KB


Размер: 304 MB
Хэш (hash) релиза: 1b94dbafe516245d44b348ad2e4bfb7c9b4b6d94

Еще никто не оставлял запись к записи скачать торрент The Jive Aces - Our Kinda Jive - 2004, . Будь первым!

!Обратная связь