Скачать через торрент музыку Johnny And The Hurricanes - Johnny And The Hurricanes Featuring Red River - 1959, бесплатно без регистрации torrent

Если у вас наблюдаются проблемы со скриншотами, переходом по ссылками, скачиванием торрентов - проблемы в блокировщике рекламы AdBlock. #хорошегоДня!


Статистика раздачи
Размер:  153 MB   |    Зарегистрирован:  5 лет 1 месяц   |    .torrent скачан:  8 раз   |   
Раздают:  1  
   
Загрузка...
 
Автор Сообщение

Galfimbul

avatar Galfimbul


Johnny And The Hurricanes / Johnny And The Hurricanes Featuring Red River


Жанр: Rock'n'Roll
Страна-производитель диска: USA
Год издания: 1959 (1990)
Издатель (лейбл): Atila Records
Номер по каталогу: ACD1031
Страна: USA
Аудиокодек: FLAC (*.flac)
Тип рипа: image+.cue
Битрейт аудио: lossless
Продолжительность: 27:05
Источник (релизер): AUDELAS KINGDOM
Наличие сканов в содержимом раздачи: да
01. Red River Rock
02. Happy Time
03. Buckeye
04. Cut Out
05. Lazy
06. Walkin'
07. Crossfire
08. Old Smokie
09. Bam-Boo
10. Thunderbolt
11. Joy Ride
12. Rock-Cha


Доп. информация: http://www.youtube.com/watch?v=azMLnKTG3wQ
Exact Audio Copy V1.0 beta 2 from 29. April 2011

EAC extraction logfile from 13. October 2012, 10:32

Johnny And The Hurricanes / Johnny And The Hurricanes Featuring Red River

Used drive : _NEC DVD_RW ND-3550A Adapter: 1 ID: 0

Read mode : SecureUtilize accurate stream : YesDefeat audio cache : YesMake use of C2 pointers : No

Read offset correction : 48Overread into Lead-In and Lead-Out : NoFill up missing offset samples with silence : YesDelete leading and trailing silent blocks : NoNull samples used in CRC calculations : YesUsed interface : Native Win32 interface for Win NT & 2000

Used output format : User Defined EncoderSelected bitrate : 768 kBit/sQuality : HighAdd ID3 tag : NoCommand line compressor : C:\Program Files\Exact Audio Copy\FLAC\FLAC.EXEAdditional command line options : -6 -V -T "ARTIST=%artist%" -T "TITLE=%title%" -T "ALBUM=%albumtitle%" -T "DATE=%year%" -T "TRACKNUMBER=%tracknr%" -T "GENRE=%genre%" -T "COMMENT=%comment%" -T "BAND=%albuminterpret%" -T "COMPOSER=%composer%" %haslyrics%--ta

TOC of the extracted CD

Track | Start | Length | Start sector | End sector --------------------------------------------------------- 1 | 0:00.00 | 2:12.60 | 0 | 9959 2 | 2:12.60 | 2:11.65 | 9960 | 19849 3 | 4:24.50 | 2:12.12 | 19850 | 29761 4 | 6:36.62 | 2:04.48 | 29762 | 39109 5 | 8:41.35 | 2:13.05 | 39110 | 49089 6 | 10:54.40 | 2:52.35 | 49090 | 62024 7 | 13:47.00 | 2:28.07 | 62025 | 73131 8 | 16:15.07 | 2:18.25 | 73132 | 83506 9 | 18:33.32 | 2:24.40 | 83507 | 94346 10 | 20:57.72 | 2:10.65 | 94347 | 104161 11 | 23:08.62 | 2:32.25 | 104162 | 115586 12 | 25:41.12 | 2:30.38 | 115587 | 126874

Range status and errors

Selected range

Filename D:\Muzika\Johnny And The Hurricanes - Johnny And The Hurricanes Featuring Red River (1959)\Johnny And The Hurricanes - Johnny And The Hurricanes Featuring Red River.wav

Peak level 95.3 % Extraction speed 1.8 X Range quality 100.0 % Test CRC 0ECC208A Copy CRC 0ECC208A Copy OK

No errors occurred

AccurateRip summary

Track 1 accurately ripped (confidence 1) [49CDAAC6] (AR v1)Track 2 accurately ripped (confidence 1) [AA785373] (AR v1)Track 3 accurately ripped (confidence 1) [A04773C2] (AR v1)Track 4 accurately ripped (confidence 1) [75731293] (AR v1)Track 5 accurately ripped (confidence 1) [1B0F6AAD] (AR v1)Track 6 accurately ripped (confidence 1) [67BEC273] (AR v1)Track 7 accurately ripped (confidence 1) [7B7ACB17] (AR v1)Track 8 accurately ripped (confidence 1) [4550CA50] (AR v1)Track 9 accurately ripped (confidence 1) [CC0FA7CE] (AR v1)Track 10 accurately ripped (confidence 1) [9A87D4FA] (AR v1)Track 11 accurately ripped (confidence 1) [A936BDBC] (AR v1)Track 12 accurately ripped (confidence 1) [650A086B] (AR v1)

All tracks accurately ripped

End of status report

==== Log checksum 04E523910D8D1EF0516217FB3E6DEBFE04C6FD55274FE49AC7F4F182209B73D4 ====


Трекер:  [ 14-Окт-2012 11:16 ]

  

Скачать .torrent

Размер .torrent файла 13 KB


Размер: 153 MB
Хэш (hash) релиза: 15b2169cfaf1c9bfbea4f2795908cf636d6de8e0

Еще никто не оставлял запись к записи скачать торрент Johnny And The Hurricanes - Johnny And The Hurricanes Featuring Red River - 1959, . Будь первым!

!Обратная связь