Скачать через торрент музыку Sheela - Changes, Straight Hearted Ones - 1997, 2000 бесплатно без регистрации torrent

Если у вас наблюдаются проблемы со скриншотами, переходом по ссылками, скачиванием торрентов - проблемы в блокировщике рекламы AdBlock. #хорошегоДня!


Статистика раздачи
Размер:  839 MB   |    Зарегистрирован:  4 года 10 месяцев   |    .torrent скачан:  9 раз   |   
Раздают:  1  
   
Загрузка...
 
Автор Сообщение

Galfimbul

avatar Galfimbul


Sheela - Changes, Straight Hearted Ones

Жанр: AOR/Melodic Hard Rock
Страна-производитель диска: Germany
Год издания: 1997, 2000
Издатель (лейбл): LBT-records
Номер по каталогу: LBT-CD 232, 234
Страна: Germany
Аудиокодек: APE (*.ape)
Тип рипа: image+.cue
Битрейт аудио: lossless
Продолжительность: 55:46, 54:49
Источник (релизер): original CD
Наличие сканов в содержимом раздачи: да

Треклист:

Changes:

01. Feels like [0:03:59.07]
02. Trapped [0:04:01.12]
03. Nature of the game [0:05:11.50]
04. Without a net [0:03:50.55]
05. Fool to believe [0:03:54.56]
06. Urban Mama [0:03:59.04]
07. Someday's getting better [0:03:36.73]
08. Nothing's forever [0:04:26.52]
09. Night of mights [0:04:51.53]
10. Changes [0:04:55.26]
11. Invasion of light [0:04:27.22]
12. Hell on earth [0:04:22.37]
13. Wake me up (Bonus) [0:04:09.14]

Straight Hearted Ones:

01. Again Now [0:03:42.12]
02. Power [0:03:57.11]
03. Symbols Breakdown [0:04:19.67]
04. Straight Hearted Ones [0:04:32.22]
05. Lightyears [0:03:44.56]
06. The Focus [0:04:01.36]
07. Can't Find My Way Home [0:03:32.09]
08. Truth [0:05:08.01]
09. Call It Desperation [0:04:12.35]
10. Feed Your Heart [0:04:14.03]
11. Cut Off [0:04:50.13]
12. Hold Your Head Up High [0:04:23.09]
13. B.T.B.W. (Bonus) [0:04:11.32]
Exact Audio Copy V1.0 beta 1 from 15. November 2010

Отчёт EAC об извлечении, выполненном 12. октября 2012, 15:15

Sheela / Changes

Дисковод: Optiarc DVD RW AD-7261S Adapter: 1 ID: 1

Режим чтения : ДостоверностьИспользование точного потока : ДаОтключение кэша аудио : ДаИспользование указателей C2 : Нет

Коррекция смещения при чтении : 48Способность читать области Lead-in и Lead-out : НетЗаполнение пропущенных сэмплов тишиной : ДаУдаление блоков с тишиной в начале и конце : НетПри вычислениях CRC использовались нулевые сэмплы : ДаИнтерфейс : Встроенный Win32-интерфейс для Win NT/2000

Выходной формат : Monkey's Audio (без потерь)Выбранный битрейт : Normal Lossless CompressionКачество : ВысокийДобавление ID3-тега : ДаУтилита сжатия : C:\Program Files\Monkey's Audio\MAC.exe

TOC извлечённого CD

Трек | Старт | Длительность | Начальный сектор | Конечный сектор --------------------------------------------------------------------- 1 | 0:00.00 | 3:59.07 | 0 | 17931 2 | 3:59.07 | 4:01.12 | 17932 | 36018 3 | 8:00.19 | 5:11.50 | 36019 | 59393 4 | 13:11.69 | 3:50.55 | 59394 | 76698 5 | 17:02.49 | 3:54.56 | 76699 | 94304 6 | 20:57.30 | 3:59.04 | 94305 | 112233 7 | 24:56.34 | 3:36.73 | 112234 | 128506 8 | 28:33.32 | 4:26.52 | 128507 | 148508 9 | 33:00.09 | 4:51.53 | 148509 | 170386 10 | 37:51.62 | 4:55.26 | 170387 | 192537 11 | 42:47.13 | 4:27.22 | 192538 | 212584 12 | 47:14.35 | 4:22.37 | 212585 | 232271 13 | 51:36.72 | 4:09.14 | 232272 | 250960

Характеристики диапазона извлечения и сообщения об ошибках

Выбранный диапазон

Имя файла D:\Downloads\Sheela - Changes.wav

Пиковый уровень 97.7 % Скорость извлечения 0.2 X Качество диапазона 100.0 % CRC теста EA6F3AD2 CRC копии EA6F3AD2 Копирование... OK

Ошибок не произошло

Конец отчёта
Exact Audio Copy V1.0 beta 1 from 15. November 2010

Отчёт EAC об извлечении, выполненном 12. октября 2012, 15:48

Sheela / Straight Hearted Ones

Дисковод: Optiarc DVD RW AD-7261S Adapter: 1 ID: 1

Режим чтения : ДостоверностьИспользование точного потока : ДаОтключение кэша аудио : ДаИспользование указателей C2 : Нет

Коррекция смещения при чтении : 48Способность читать области Lead-in и Lead-out : НетЗаполнение пропущенных сэмплов тишиной : ДаУдаление блоков с тишиной в начале и конце : НетПри вычислениях CRC использовались нулевые сэмплы : ДаИнтерфейс : Встроенный Win32-интерфейс для Win NT/2000

Выходной формат : Monkey's Audio (без потерь)Выбранный битрейт : Normal Lossless CompressionКачество : ВысокийДобавление ID3-тега : ДаУтилита сжатия : C:\Program Files\Monkey's Audio\MAC.exe

TOC извлечённого CD

Трек | Старт | Длительность | Начальный сектор | Конечный сектор --------------------------------------------------------------------- 1 | 0:00.00 | 3:42.12 | 0 | 16661 2 | 3:42.12 | 3:57.11 | 16662 | 34447 3 | 7:39.23 | 4:19.67 | 34448 | 53939 4 | 11:59.15 | 4:32.22 | 53940 | 74361 5 | 16:31.37 | 3:44.56 | 74362 | 91217 6 | 20:16.18 | 4:01.36 | 91218 | 109328 7 | 24:17.54 | 3:32.09 | 109329 | 125237 8 | 27:49.63 | 5:08.01 | 125238 | 148338 9 | 32:57.64 | 4:12.35 | 148339 | 167273 10 | 37:10.24 | 4:14.03 | 167274 | 186326 11 | 41:24.27 | 4:50.13 | 186327 | 208089 12 | 46:14.40 | 4:23.09 | 208090 | 227823 13 | 50:37.49 | 4:11.32 | 227824 | 246680

Характеристики диапазона извлечения и сообщения об ошибках

Выбранный диапазон

Имя файла D:\Downloads\Sheela - Straight Hearted Ones.wav

Пиковый уровень 96.6 % Скорость извлечения 0.2 X Качество диапазона 99.9 % CRC теста 242A715C CRC копии 242A715C Копирование... OK

Ошибок не произошло

Конец отчёта
Andreas Keppler lead vocals
Reiner Backe bass and backing vocals
Chris Moser guitar
Markus Teske keyboards and backing vocals
Jo-Jo Nimtz drums and backing vocals
Jacky Voutay drums


Трекер:  [ 14-Окт-2012 11:16 ]

  

Скачать .torrent

Размер .torrent файла 18 KB


Размер: 839 MB
Хэш (hash) релиза: 7f155d41755aee923423f5eb1185eff897ea682c

Еще никто не оставлял запись к записи скачать торрент Sheela - Changes, Straight Hearted Ones - 1997, 2000 . Будь первым!

!Обратная связь