Скачать через торрент музыку Joe Houston - Cornbread And Cabbage Greens - 1952, бесплатно без регистрации torrent

Если у вас наблюдаются проблемы со скриншотами, переходом по ссылками, скачиванием торрентов - проблемы в блокировщике рекламы AdBlock. #хорошегоДня!


Статистика раздачи
Размер:  311 MB   |    Зарегистрирован:  4 года 10 месяцев   |    .torrent скачан:  12 раз   |   
Раздают:  1  
   
Загрузка...
 
Автор Сообщение

Galfimbul

avatar Galfimbul


Joe Houston / Cornbread And Cabbage Greens


Жанр: Rock'n'Roll
Страна-производитель диска: UK
Год издания: 1952 (1992)
Издатель (лейбл): Specialty Records Inc.
Номер по каталогу: 2171
Страна: USA
Аудиокодек: FLAC (*.flac)
Тип рипа: image+.cue
Битрейт аудио: lossless
Продолжительность: 39:07
Источник (релизер): AUDELAS KINGDOM
Наличие сканов в содержимом раздачи: да
01. Cornbread and Cabbage Greens
02. Jay's Boogie
03. Blues After Hours
04. Sentimental Journey
05. Celebrity Club Drag
06. Gordon's Knot
07. All Night Long
08. Ruth's Rock
09. Flying Home
10. Walkin' Home
11. Lester Leaps In
12. I Cover the Waterfront
13. Troubles and Worries
14. Huggy Boy Radio Ad
15. Rockin' and Boppin'
16. Flying Home
17. She's Gone
18. Anything
19. Ritchie's Roll
20. Thom's Tune
21. Teen-Age Hop
22. Well, Well My Love
23. Mambo
24. Shake It Up
25. Coastin
26. Midnight


Доп. информация: http://www.youtube.com/watch?v=739YiIBBVYc
Exact Audio Copy V1.0 beta 2 from 29. April 2011

EAC extraction logfile from 11. October 2012, 20:50

Joe Houston / Cornbread And Cabbage Greens

Used drive : _NEC DVD_RW ND-3550A Adapter: 1 ID: 0

Read mode : SecureUtilize accurate stream : YesDefeat audio cache : YesMake use of C2 pointers : No

Read offset correction : 48Overread into Lead-In and Lead-Out : NoFill up missing offset samples with silence : YesDelete leading and trailing silent blocks : NoNull samples used in CRC calculations : YesUsed interface : Native Win32 interface for Win NT & 2000

Used output format : User Defined EncoderSelected bitrate : 768 kBit/sQuality : HighAdd ID3 tag : NoCommand line compressor : C:\Program Files\Exact Audio Copy\FLAC\FLAC.EXEAdditional command line options : -6 -V -T "ARTIST=%artist%" -T "TITLE=%title%" -T "ALBUM=%albumtitle%" -T "DATE=%year%" -T "TRACKNUMBER=%tracknr%" -T "GENRE=%genre%" -T "COMMENT=%comment%" -T "BAND=%albuminterpret%" -T "COMPOSER=%composer%" %haslyrics%--ta

TOC of the extracted CD

Track | Start | Length | Start sector | End sector --------------------------------------------------------- 1 | 0:00.00 | 2:27.22 | 0 | 11046 2 | 2:27.22 | 2:46.38 | 11047 | 23534 3 | 5:13.60 | 2:56.20 | 23535 | 36754 4 | 8:10.05 | 2:37.65 | 36755 | 48594 5 | 10:47.70 | 2:36.12 | 48595 | 60306 6 | 13:24.07 | 2:19.08 | 60307 | 70739 7 | 15:43.15 | 2:39.12 | 70740 | 82676 8 | 18:22.27 | 2:16.43 | 82677 | 92919 9 | 20:38.70 | 2:31.60 | 92920 | 104304 10 | 23:10.55 | 2:39.42 | 104305 | 116271 11 | 25:50.22 | 2:27.20 | 116272 | 127316 12 | 28:17.42 | 2:46.18 | 127317 | 139784 13 | 31:03.60 | 1:51.30 | 139785 | 148139 14 | 32:55.15 | 1:24.45 | 148140 | 154484 15 | 34:19.60 | 2:42.45 | 154485 | 166679 16 | 37:02.30 | 3:40.30 | 166680 | 183209 17 | 40:42.60 | 3:14.17 | 183210 | 197776 18 | 43:57.02 | 2:09.25 | 197777 | 207476 19 | 46:06.27 | 1:55.13 | 207477 | 216114 20 | 48:01.40 | 2:23.30 | 216115 | 226869 21 | 50:24.70 | 2:06.55 | 226870 | 236374 22 | 52:31.50 | 2:34.50 | 236375 | 247974 23 | 55:06.25 | 2:30.07 | 247975 | 259231 24 | 57:36.32 | 3:25.05 | 259232 | 274611 25 | 61:01.37 | 2:30.45 | 274612 | 285906 26 | 63:32.07 | 4:35.40 | 285907 | 306571

Range status and errors

Selected range

Filename D:\Muzika\Joe Houston - Cornbread And Cabbage Greens (1952)\Joe Houston - Cornbread And Cabbage Greens.wav

Peak level 96.7 % Extraction speed 5.3 X Range quality 99.9 % Test CRC C629281F Copy CRC C629281F Copy OK

No errors occurred

AccurateRip summary

Track 1 not present in databaseTrack 2 not present in databaseTrack 3 not present in databaseTrack 4 not present in databaseTrack 5 not present in databaseTrack 6 not present in databaseTrack 7 not present in databaseTrack 8 not present in databaseTrack 9 not present in databaseTrack 10 not present in databaseTrack 11 not present in databaseTrack 12 not present in databaseTrack 13 not present in databaseTrack 14 not present in databaseTrack 15 not present in databaseTrack 16 not present in databaseTrack 17 not present in databaseTrack 18 not present in databaseTrack 19 not present in databaseTrack 20 not present in databaseTrack 21 not present in databaseTrack 22 not present in databaseTrack 23 not present in databaseTrack 24 not present in databaseTrack 25 not present in databaseTrack 26 not present in database

None of the tracks are present in the AccurateRip database

End of status report

==== Log checksum 51DC8C7D7E89984C5CD20287C85826FA557B47E22562C1D7C5BC687AD17BB432 ====


Трекер:  [ 14-Окт-2012 11:16 ]

  

Скачать .torrent

Размер .torrent файла 13 KB


Размер: 311 MB
Хэш (hash) релиза: 333eee44ebd28996ec885db429ae988ec1d4e04c

Еще никто не оставлял запись к записи скачать торрент Joe Houston - Cornbread And Cabbage Greens - 1952, . Будь первым!

!Обратная связь