Скачать через торрент музыку Stray - Stand up and be Counted бесплатно без регистрации torrent

Если у вас наблюдаются проблемы со скриншотами, переходом по ссылками, скачиванием торрентов - проблемы в блокировщике рекламы AdBlock. #хорошегоДня!


Статистика раздачи
Размер:  358 MB   |    Зарегистрирован:  5 лет 1 месяц   |    .torrent скачан:  3 раза   |   
Раздают:  1  
   
Загрузка...
 
Автор Сообщение

Galfimbul

avatar Galfimbul


Stray / Stand up and be Counted (1975)

Жанр: Hard Rock
Год издания: 2007
Аудиокодек: FLAC (*.flac)
Тип рипа: image+.cue
Битрейт аудио: lossless
Продолжительность: 49:57
Источник (релизер): my disc
Наличие сканов в содержимом раздачи: да
Треклист:
01. Stand Up And Be Counted [0:04:20.53]
02. For The People [0:05:31.47]
03. As Long As You Feel Good [0:03:53.64]
04. Waiting For The Big Break [0:04:16.05]
05. Precious Love [0:03:40.18]
06. Smile [0:05:14.13]
07. Maybe You Do [0:04:03.26]
08. Down Down Down [0:04:36.49]
09. Woolie [0:02:50.40]
10. Everyday(Of My Life) [0:03:10.34]
11. The End [0:05:22.14]
12. Recover(Single)-Bonus [0:02:57.71]
Exact Audio Copy V0.99 prebeta 4 from 23. January 2008

Отчёт EAC об извлечении, выполненном 11. октября 2012, 19:47

Stray / Stand Up And Be Counted

Дисковод: ASUS DRW-1814BL Adapter: 1 ID: 0

Режим чтения : ДостоверностьИспользование точного потока : ДаОтключение кэша аудио : ДаИспользование указателей C2 : Нет

Коррекция смещения при чтении : 6Способность читать области Lead-in и Lead-out : НетЗаполнение пропущенных сэмплов тишиной : ДаУдаление блоков с тишиной в начале и конце : НетПри вычислениях CRC использовались нулевые сэмплы : ДаИнтерфейс : Установленный внешний ASPI-интерфейс

Выходной формат : Пользовательский кодировщикВыбранный битрейт : 1024 kBit/sКачество : ВысокийДобавление ID3-тэга : НетУтилита сжатия : C:\Program Files\Exact Audio Copy\FLAC\FLAC.EXEДополнительные параметры : -6 -V -T "ARTIST=%a" -T "TITLE=%t" -T "ALBUM=%g" -T "DATE=%y" -T "TRACKNUMBER=%n" -T "GENRE=%m" -T "COMMENT=%e" %s -o %d

TOC извлечённого CD

Трек | Старт | Длительность | Начальный сектор | Конечный сектор --------------------------------------------------------------------- 1 | 0:00.00 | 4:20.53 | 0 | 19552 2 | 4:20.53 | 5:31.47 | 19553 | 44424 3 | 9:52.25 | 3:53.64 | 44425 | 61963 4 | 13:46.14 | 4:16.05 | 61964 | 81168 5 | 18:02.19 | 3:40.18 | 81169 | 97686 6 | 21:42.37 | 5:14.13 | 97687 | 121249 7 | 26:56.50 | 4:03.26 | 121250 | 139500 8 | 31:00.01 | 4:36.49 | 139501 | 160249 9 | 35:36.50 | 2:50.40 | 160250 | 173039 10 | 38:27.15 | 3:10.34 | 173040 | 187323 11 | 41:37.49 | 5:22.14 | 187324 | 211487 12 | 46:59.63 | 2:57.71 | 211488 | 224833

Характеристики диапазона извлечения и сообщения об ошибках

Выбранный диапазон

Имя файла D:\loSSleSS\stray'75\Stray - Stand Up And Be Counted.wav

Пиковый уровень 97.7 % Качество диапазона 99.9 % CRC теста ABA404AB CRC копии ABA404AB Копирование... OK

Ошибок не произошло

AccurateRip: сводка

Трек 1 нет в базе данныхТрек 2 нет в базе данныхТрек 3 нет в базе данныхТрек 4 нет в базе данныхТрек 5 нет в базе данныхТрек 6 нет в базе данныхТрек 7 нет в базе данныхТрек 8 нет в базе данныхТрек 9 нет в базе данныхТрек 10 нет в базе данныхТрек 11 нет в базе данныхТрек 12 нет в базе данных

Ни одного трека нет в базе AccurateRip

Конец отчёта
Несмотря на свои довольно качественные работы группа "Stray" так и не смогла пробиться на передний край рок-сцены, а журналисты называли ее бедным родственником "Status Quo". С другой стороны, в конце 60-х ее музыканты уже имели собственное освещение, пиротехнику и транспорт, в то время как другие еле наскребали на инструменты. Команда была основана в 1966 году четырьмя учащимися одной из лондонских школ. В состав вошли Дел Бромхэм (гитара, вокал), Стив Гэдд (вокал, гитара), Гэри Гайлс (бас) и Стив Кратчли (ударные). Кратчли впоследствии ушел играть традиционный джаз, а его место занял Ричи Коул.По окончании школы парни взялись за дело всерьез и приступили к регулярным концертам в лондонских клубах, играя чудную смесь хард-рока, прогрессива и ритм-энд-блюза. Весной 1969-го группа выступила на разогреве у "Groundhogs", после чего заполучила контракт с "Transatlantic Records". На следующий год "Stray" дебютировали с одноименным альбомом, на котором звучал гитарно-ориентированный хард-рок.В 1971-м коллектив отметился на фестивале в Ридинге, где выступил наравне с Рори Галлахером, "Medicine Head" и "Van der Graaf Generator". В том же году "Stray" провели хедлайнерское британское турне и впервые засветились на телевидении, а затем сделали вылазку в Европу на разогреве у "Ten years after". В 1972-м музыкантов вновь ждал Ридинг, а в 1973-м – гастроли в компании с "Groundhogs" и "Black Sabbath". Теперь концерты "Stray" проходили в расширенной конфигурации: к делу были подключены бэк-вокалисты, клавишные и медная секция. Основной же состав оставался стабильным вплоть до 1974 года, пока в команде не появился гитарист Пит Дайер.Гэдд ушел во время сессий "Stand up and be counted", и с этого момента лидирующие вокальные партии распределились между Бромхэмом и Дайером. Смена состава сопровождалась сменой лейбла – расставшись с "Transatlantic" коллектив перебрался на "Pye Records". Летом 1975-го "Stray" впервые посетили Америку где играли со "Spirit" и "Canned heat", а по возвращении домой им доверили открывать престижные концерты "Kiss" и "Rush".Несмотря на довольно-таки теплый прием публики, финансовое положение группы продолжало оставаться плачевным. Хроническое безденежье, плохой менеджмент и накатившая волна панка в 1977 году привели к распаду команды. Бромхэм собрал "The Del Bromham Band", а его бывшие коллеги спустя несколько лет реанимировали вывеску "Stray", пригласив к себе гитаристов Дона Холлиса и Тони Поу. Данная конфигурация успела провести одно турне в компании с "Saga", после чего Бронхэм вернулся на свое законное место. В 1984-м в команду подтянулся и Гэдд, при участии которого был записан концертник "Live at the Marquee".Со второй половины 70-х Бронхэм сосредоточился на других проектах, а про "Stray" вспомнил только спустя 10 лет. С помощью новых рекрутов, басиста Дасти Миллера и барабанщика Фила МакКи, он сделал не только концертный альбом, но и записал полноценный студийник, "New Dawn". Группа оставалась деятельной и в новом тысячелетии, и хотя ее состав теперь регулярно менялся, она не ограничивалась концертами, а время от времени выпускала новые работы.


Трекер:  [ 14-Окт-2012 11:16 ]

  

Скачать .torrent

Размер .torrent файла 15 KB


Размер: 358 MB
Хэш (hash) релиза: 9f651ab0d6f67b9e436b04b563e248c0ed526ca6

Еще никто не оставлял запись к записи скачать торрент Stray - Stand up and be Counted . Будь первым!

!Обратная связь