Скачать через торрент музыку (Neo ProgressiveAcoustic бесплатно без регистрации torrent

Если у вас наблюдаются проблемы со скриншотами, переходом по ссылками, скачиванием торрентов - проблемы в блокировщике рекламы AdBlock. #хорошегоДня!


Статистика раздачи
Размер:  305 MB   |    Зарегистрирован:  5 лет 1 месяц   |    .torrent скачан:  12 раз   |   
Раздают:  1  
   
Загрузка...
 
Автор Сообщение

Galfimbul

avatar Galfimbul


Arena - Radiance

Жанр: Neo Progressive/Acoustic (Unplugged)
Год выпуска диска: 2003
Страна: UK
Label: Verglas Music
Catalog Nr.: VGCD 031
Аудио кодек: FLAC
Тип рипа: image+.cue (test&copy)
Битрейт аудио: lossless
Продолжительность: 54:14
Источник: свой рип

Трэклист:

1. (Don't Forget to) Breathe (3:54)
2. A State of Grace (3:31)
3. An Angel Falls (1:13)
4. Spectre at the Feast (5:51)
5. Skin Game (4:07)
6. Bitter Harvest (2:42)
7. The City of Lanterns (1:46)
8. Mea Culpa (3:42)
9. Ascension (4:15)
10. Crying for Help IV (3:41)
11. The Butterfly Man (7:49)
12. Jericho (7:54)
13. Crying for Help VII (3:44)

Total Time: 54:14

Музыканты:

- Clive Nolan / keyboards, backing vocals
- Mick Pointer / drums
- Rob Sowden / vocals
- John Mitchell / guitars, backing vocals
- Ian Salmon / bass

Об альбоме: Акустический альбом группы. Записан вживую 7 ноября 2002 года. Для любителей и ценителей unplugged versions.
Exact Audio Copy V1.0 beta 3 from 29. August 2011

EAC extraction logfile from 12. October 2012, 22:20

Arena / Radiance

Used drive : ASUS DRW-24B1LT Adapter: 4 ID: 0

Read mode : Secure
Utilize accurate stream : Yes
Defeat audio cache : Yes
Make use of C2 pointers : No

Read offset correction : 6
Overread into Lead-In and Lead-Out : No
Fill up missing offset samples with silence : Yes
Delete leading and trailing silent blocks : No
Null samples used in CRC calculations : Yes
Used interface : Native Win32 interface for Win NT & 2000

Used output format : User Defined Encoder
Selected bitrate : 1024 kBit/s
Quality : High
Add ID3 tag : Yes
Command line compressor : C:\Program Files (x86)\FLAC\flac.exe
Additional command line options : -6 -V -T "ARTIST=%artist%" -T "TITLE=%title%" -T "ALBUM=%albumtitle%" -T "DATE=%year%" -T "TRACKNUMBER=%tracknr%" -T "GENRE=%genre%" -T "COMMENT=%comment%" %source% -o %dest%

TOC of the extracted CD

Track | Start | Length | Start sector | End sector
---------------------------------------------------------
1 | 0:00.00 | 3:54.10 | 0 | 17559
2 | 3:54.10 | 3:31.32 | 17560 | 33416
3 | 7:25.42 | 1:13.58 | 33417 | 38949
4 | 8:39.25 | 5:51.27 | 38950 | 65301
5 | 14:30.52 | 4:07.01 | 65302 | 83827
6 | 18:37.53 | 2:42.73 | 83828 | 96050
7 | 21:20.51 | 1:46.10 | 96051 | 104010
8 | 23:06.61 | 3:42.47 | 104011 | 120707
9 | 26:49.33 | 4:15.19 | 120708 | 139851
10 | 31:04.52 | 3:41.53 | 139852 | 156479
11 | 34:46.30 | 7:49.03 | 156480 | 191657
12 | 42:35.33 | 7:54.52 | 191658 | 227259
13 | 50:30.10 | 3:44.65 | 227260 | 244124

Range status and errors

Selected range

Filename Y:\EAC\wurensh\Arena\Arena - Radiance.wav

Peak level 94.4 %
Extraction speed 8.4 X
Range quality 99.9 %
Test CRC 36A66673
Copy CRC 36A66673
Copy OK

No errors occurred

AccurateRip summary

Track 1 not present in database
Track 2 not present in database
Track 3 not present in database
Track 4 not present in database
Track 5 not present in database
Track 6 not present in database
Track 7 not present in database
Track 8 not present in database
Track 9 not present in database
Track 10 not present in database
Track 11 not present in database
Track 12 not present in database
Track 13 not present in database

None of the tracks are present in the AccurateRip database

End of status report
Коврики 300dpi в комплекте.
Progarchives info

Трекер:  [ 14-Окт-2012 11:16 ]

  

Скачать .torrent

Размер .torrent файла 12 KB


Размер: 305 MB
Хэш (hash) релиза: c8e1d714d77281f4df5601d5ebc4beb23f2ac23f

Еще никто не оставлял запись к записи скачать торрент (Neo ProgressiveAcoustic . Будь первым!

!Обратная связь