Скачать через торрент музыку Uriah Heep - Icon - 2012, FLAC бесплатно без регистрации torrent

Если у вас наблюдаются проблемы со скриншотами, переходом по ссылками, скачиванием торрентов - проблемы в блокировщике рекламы AdBlock. #хорошегоДня!


Статистика раздачи
Размер:  493 MB   |    Зарегистрирован:  4 года 10 месяцев   |    .torrent скачан:  20 раз   |   
Раздают:  1  
   
Загрузка...
 
Автор Сообщение

Galfimbul

avatar Galfimbul


Uriah Heep / Icon

Жанр: Hard Rock/Progressive Rock/Heavy Metal
Страна-производитель диска: Германия
Год издания: 2012
Издатель (лейбл): Universal International Music B.V.
Номер по каталогу: 533 839-2
Страна: Великобритания
Аудиокодек: FLAC (*.flac)
Тип рипа: image+.cue
Битрейт аудио: lossless
Продолжительность: 01:16:06
Наличие сканов в содержимом раздачи: да

Треклист:
01. Easy Livin'
02. July Morning
03. Free Me
04. Gypsy
05. Wonderworld
06. Lady In Black
07. Look At Yourself
08. The Wizard
09. Echoes In The Dark
10. Paradise / The Spell
11. Stealin'
12. Bird Of Prey
13. Return To Fantasy
14. Free 'N' Easy
Exact Audio Copy V1.0 beta 3 from 29. August 2011

Отчёт EAC об извлечении, выполненном 10. октября 2012, 21:42

Uriah Heep / Icon

Дисковод: HL-DT-STDVDRAM GH20NS10 Adapter: 2 ID: 0

Режим чтения : ДостоверностьИспользование точного потока : ДаОтключение кэша аудио : ДаИспользование указателей C2 : Нет

Коррекция смещения при чтении : 667Способность читать области Lead-in и Lead-out : НетЗаполнение пропущенных сэмплов тишиной : ДаУдаление блоков с тишиной в начале и конце : НетПри вычислениях CRC использовались нулевые сэмплы : ДаИнтерфейс : Встроенный Win32-интерфейс для Win NT/2000

Выходной формат : Внутренние WAV-операцииФормат сэмплов : 44.100 Гц; 16 бит; стерео

TOC извлечённого CD

Трек | Старт | Длительность | Начальный сектор | Конечный сектор --------------------------------------------------------------------- 1 | 0:00.00 | 2:37.08 | 0 | 11782 2 | 2:37.08 | 10:31.12 | 11783 | 59119 3 | 13:08.20 | 3:32.60 | 59120 | 75079 4 | 16:41.05 | 6:37.36 | 75080 | 104890 5 | 23:18.41 | 4:29.54 | 104891 | 125119 6 | 27:48.20 | 4:43.14 | 125120 | 146358 7 | 32:31.34 | 5:09.23 | 146359 | 169556 8 | 37:40.57 | 2:58.45 | 169557 | 182951 9 | 40:39.27 | 4:50.19 | 182952 | 204720 10 | 45:29.46 | 12:41.10 | 204721 | 261805 11 | 58:10.56 | 4:49.10 | 261806 | 283490 12 | 62:59.66 | 4:11.52 | 283491 | 302367 13 | 67:11.43 | 5:49.10 | 302368 | 328552 14 | 73:00.53 | 3:06.09 | 328553 | 342511

Характеристики диапазона извлечения и сообщения об ошибках

Выбранный диапазон

Имя файла F:\ЕАС\Uriah Heep - Icon.wav

Пиковый уровень 98.8 % Скорость извлечения 8.2 X Качество диапазона 100.0 % CRC теста 5EED23A1 CRC копии 5EED23A1 Копирование... OK

Ошибок не произошло

AccurateRip: сводка

Трек 1 отсутствует в базе данныхТрек 2 отсутствует в базе данныхТрек 3 отсутствует в базе данныхТрек 4 отсутствует в базе данныхТрек 5 отсутствует в базе данныхТрек 6 отсутствует в базе данныхТрек 7 отсутствует в базе данныхТрек 8 отсутствует в базе данныхТрек 9 отсутствует в базе данныхТрек 10 отсутствует в базе данныхТрек 11 отсутствует в базе данныхТрек 12 отсутствует в базе данныхТрек 13 отсутствует в базе данныхТрек 14 отсутствует в базе данных

Ни одного трека нет в базе AccurateRip

Конец отчёта

==== Контрольная сумма отчёта A156920C325415D4E9FED9729E2F33166ABC75515E8FC31D70DAAEF57C3FC558 ====
REM GENRE "Hard Rock"REM DATE 2012REM DISCID AE11D60EREM COMMENT "ExactAudioCopy v1.0b3"PERFORMER "Uriah Heep"TITLE "Icon"FILE "Uriah Heep - Icon.flac" WAVE TRACK 01 AUDIO TITLE "Easy Livin'" PERFORMER "Uriah Heep" INDEX 01 00:00:00 TRACK 02 AUDIO TITLE "July Morning" PERFORMER "Uriah Heep" INDEX 00 02:36:43 INDEX 01 02:37:08 TRACK 03 AUDIO TITLE "Free Me" PERFORMER "Uriah Heep" INDEX 00 13:07:55 INDEX 01 13:08:20 TRACK 04 AUDIO TITLE "Gypsy" PERFORMER "Uriah Heep" INDEX 00 16:40:40 INDEX 01 16:41:05 TRACK 05 AUDIO TITLE "Wonderworld" PERFORMER "Uriah Heep" INDEX 00 23:18:01 INDEX 01 23:18:41 TRACK 06 AUDIO TITLE "Lady In Black" PERFORMER "Uriah Heep" INDEX 00 27:47:55 INDEX 01 27:48:20 TRACK 07 AUDIO TITLE "Look At Yourself" PERFORMER "Uriah Heep" INDEX 00 32:30:69 INDEX 01 32:31:34 TRACK 08 AUDIO TITLE "The Wizard" PERFORMER "Uriah Heep" INDEX 00 37:40:17 INDEX 01 37:40:57 TRACK 09 AUDIO TITLE "Echoes In The Dark" PERFORMER "Uriah Heep" INDEX 00 40:38:62 INDEX 01 40:39:27 TRACK 10 AUDIO TITLE "Paradise / The Spell" PERFORMER "Uriah Heep" INDEX 00 45:29:06 INDEX 01 45:29:46 TRACK 11 AUDIO TITLE "Stealin'" PERFORMER "Uriah Heep" INDEX 00 58:10:16 INDEX 01 58:10:56 TRACK 12 AUDIO TITLE "Bird Of Prey" PERFORMER "Uriah Heep" INDEX 00 62:59:26 INDEX 01 62:59:66 TRACK 13 AUDIO TITLE "Return To Fantasy" PERFORMER "Uriah Heep" INDEX 00 67:11:03 INDEX 01 67:11:43 TRACK 14 AUDIO TITLE "Free 'N' Easy" PERFORMER "Uriah Heep" INDEX 00 73:00:13 INDEX 01 73:00:53
AUDIOCHECKER v2.0 beta (build 457) - by Dester - <a href="mailto:opdester@freemail.hu" class="postLink">opdester@freemail.hu</a>~~~~~~~~~~~~~~~~~~~~~~~~~~~~~~~~~~-=== НЕ РЕДАКТИРУЙТЕ ЭТОТ ФАЙЛ! ===-

Путь: ...\Uriah Heep - Icon 2012

1 -=- Uriah Heep - Icon.flac -=- CDDA (100%)

90245284


Трекер:  [ 14-Окт-2012 11:16 ]

  

Скачать .torrent

Размер .torrent файла 20 KB


Размер: 493 MB
Хэш (hash) релиза: ed0e84e8584410adb4faeb8a7d51b547d865e309

Еще никто не оставлял запись к записи скачать торрент Uriah Heep - Icon - 2012, FLAC . Будь первым!

!Обратная связь