Скачать через торрент музыку Jon Lord - Concerto For Group And Orchestra - 2012, APE бесплатно без регистрации torrent

Если у вас наблюдаются проблемы со скриншотами, переходом по ссылками, скачиванием торрентов - проблемы в блокировщике рекламы AdBlock. #хорошегоДня!


Статистика раздачи
Размер:  311 MB   |    Зарегистрирован:  4 года 10 месяцев   |    .torrent скачан:  25 раз   |   
Раздают:  1  
   
Загрузка...
 
Автор Сообщение

Galfimbul

avatar Galfimbul


Jon Lord - Concerto For Group And Orchestra

Жанр: Rock
Год издания: 2012
Аудиокодек: APE (*.ape)
Тип рипа: image+.cue
Битрейт аудио: lossless
Продолжительность: 46:52
Источник (релизер): Свой диск
Наличие сканов в содержимом раздачи: да

Треклист:
01. Movement One: Moderato - Allegro (w\ Darin Vasilev) [0:16:23.21]
02. Movement Two: Andante (w\ Joe Bonamassa & Bruce Dickinson) [0:19:36.89]
03. Movement Three: Vivace - Presto (w\ Steve Morse) [0:10:51.73]
Exact Audio Copy V0.99 prebeta 4 from 23. January 2008

Отчёт EAC об извлечении, выполненном 11. октября 2012, 19:25

Jon Lord / Concerto For Group And Orchestra

Дисковод: Optiarc DVD RW AD-7173A Adapter: 0 ID: 1

Режим чтения : ДостоверностьИспользование точного потока : ДаОтключение кэша аудио : ДаИспользование указателей C2 : Нет

Коррекция смещения при чтении : 48Способность читать области Lead-in и Lead-out : НетЗаполнение пропущенных сэмплов тишиной : ДаУдаление блоков с тишиной в начале и конце : НетПри вычислениях CRC использовались нулевые сэмплы : ДаИнтерфейс : Встроенный Win32-интерфейс для Win NT/2000

Выходной формат : Внутренние WAV-операцииФормат сэмплов : 44.100 Гц; 16 бит; стерео

TOC извлечённого CD

Трек | Старт | Длительность | Начальный сектор | Конечный сектор --------------------------------------------------------------------- 1 | 0:00.00 | 16:23.16 | 0 | 73740 2 | 16:23.16 | 19:36.67 | 73741 | 162007 3 | 36:00.08 | 10:51.55 | 162008 | 210887

Характеристики диапазона извлечения и сообщения об ошибках

Выбранный диапазон

Имя файла F:\УДАЛИТЬ\Jon Lord-Concerto For Group And Orchestra (2012)\Jon Lord - Concerto For Group And Orchestra.wav

Пиковый уровень 99.8 % Качество диапазона 99.9 % CRC теста 55647A4F CRC копии 55647A4F Копирование... OK

Ошибок не произошло

AccurateRip: сводка

Трек 1 точность не определена (достоверность 1) [A1F82173], AccurateRip вернул [24C5C1AB]Трек 2 точность не определена (достоверность 1) [08443DDF], AccurateRip вернул [34C79603]Трек 3 точность не определена (достоверность 1) [E13FA2B2], AccurateRip вернул [90C14898]

Ни один трек не прошёл проверки на точностьВ вашей базе может быть иной вариант штамповки диска

Конец отчёта


Трекер:  [ 14-Окт-2012 11:15 ]

  

Скачать .torrent

Размер .torrent файла 13 KB


Размер: 311 MB
Хэш (hash) релиза: 5c4e3c8c98bf33e8a32946850c56d6df33b9caae

Еще никто не оставлял запись к записи скачать торрент Jon Lord - Concerto For Group And Orchestra - 2012, APE . Будь первым!

!Обратная связь