Скачать через торрент музыку Susanna Hoffs - Дискография 1990-2012, FLAC бесплатно без регистрации torrent

Если у вас наблюдаются проблемы со скриншотами, переходом по ссылками, скачиванием торрентов - проблемы в блокировщике рекламы AdBlock. #хорошегоДня!


Статистика раздачи
Размер:  2.06 GB   |    Зарегистрирован:  5 лет   |    .torrent скачан:  15 раз   |   
Раздают:  1  
   
Загрузка...
 
Автор Сообщение

Galfimbul

avatar Galfimbul


Susanna Hoffs - Дискография 1990-2012
(9 компакт-дисков)



Жанр: Glam Rock, Pop, Acoustic
Производитель дисков: USA, Japan, Austria, UK
Аудио кодек: FLAC
Тип рипа: image+.cue
Битрейт аудио: lossless

Susanna Hoffs (Сюзанна Хоффс, род. 17.01.1959) - американская певица, актриса, музыкант.
Наиболее известна как вокалистка легендарной женской рок-группы The Bangles. После распада
коллектива выпустила три сольных альбома, которые и представлены в данной раздаче.
На данный момент продолжает активную творческую деятельность как в составе воссоединившихся
The Bangles, так и в рамках дуэта Matthew Sweet & Susanna Hoffs.


Треклист:
01 My Side of the Bed (3:27)
02 Made of Stone (3:21)
03 Circus Girl (3:34)

Компакт-диск:
Columbia / Sony Music Entertainment 656554 5. Made in Austria.
Exact Audio Copy V0.99 prebeta 5 from 4. May 2009

EAC extraction logfile from 18. June 2011, 16:56

Susanna Hoffs / My Side of the Bed

Used drive : HP BD Combo 240d Adapter: 3 ID: 0

Read mode : SecureUtilize accurate stream : YesDefeat audio cache : YesMake use of C2 pointers : No

Read offset correction : 6Overread into Lead-In and Lead-Out : NoFill up missing offset samples with silence : YesDelete leading and trailing silent blocks : NoNull samples used in CRC calculations : YesUsed interface : Native Win32 interface for Win NT & 2000

Used output format : User Defined EncoderSelected bitrate : 1024 kBit/sQuality : HighAdd ID3 tag : NoCommand line compressor : C:\Program Files\Exact Audio Copy\FLAC\FLAC.EXEAdditional command line options : -8 -V -T "ARTIST=%a" -T "TITLE=%t" -T "ALBUM=%g" -T "DATE=%y" -T "TRACKNUMBER=%n" -T "GENRE=%m" -T "COMMENT=EAC FLAC -8" %s

TOC of the extracted CD

Track | Start | Length | Start sector | End sector --------------------------------------------------------- 1 | 0:00.00 | 3:28.60 | 0 | 15659 2 | 3:28.60 | 3:14.37 | 15660 | 30246 3 | 6:43.22 | 3:34.35 | 30247 | 46331

Range status and errors

Selected range

Filename C:\Susanna Hoffs - My Side of the Bed (single) (1990) [FLAC] {Columbia 656554 5}\Susanna Hoffs - My Side of the Bed.wav

Peak level 99.2 % Range quality 100.0 % Test CRC 0054CDF8 Copy CRC 0054CDF8 Copy OK

No errors occurred

AccurateRip summary

Track 1 not present in databaseTrack 2 not present in databaseTrack 3 not present in database

None of the tracks are present in the AccurateRip database

End of status report
01 Unconditional Love (3:52)
02 It's Lonely Out Here (3:52)
03 Circus Girl (3:33)

Компакт-диск:
Columbia / Sony Music Entertainment 656782 2. Made in Austria.
Exact Audio Copy V0.99 prebeta 5 from 4. May 2009

EAC extraction logfile from 12. October 2012, 1:52

Susanna Hoffs / Unconditional Love

Used drive : HP BD Combo 240d Adapter: 3 ID: 0

Read mode : SecureUtilize accurate stream : YesDefeat audio cache : YesMake use of C2 pointers : No

Read offset correction : 6Overread into Lead-In and Lead-Out : NoFill up missing offset samples with silence : YesDelete leading and trailing silent blocks : NoNull samples used in CRC calculations : YesUsed interface : Native Win32 interface for Win NT & 2000

Used output format : User Defined EncoderSelected bitrate : 1024 kBit/sQuality : HighAdd ID3 tag : NoCommand line compressor : C:\Program Files\Exact Audio Copy\FLAC\FLAC.EXEAdditional command line options : -8 -V -T "ARTIST=%a" -T "TITLE=%t" -T "ALBUM=%g" -T "DATE=%y" -T "TRACKNUMBER=%n" -T "GENRE=%m" -T "COMMENT=EAC FLAC -8" %s

TOC of the extracted CD

Track | Start | Length | Start sector | End sector --------------------------------------------------------- 1 | 0:00.00 | 3:52.22 | 0 | 17421 2 | 3:52.22 | 3:52.13 | 17422 | 34834 3 | 7:44.35 | 3:33.42 | 34835 | 50851

Range status and errors

Selected range

Filename C:\Susanna Hoffs - Unconditional Love (single) (1991) [FLAC] {Columbia 656782 2}\Susanna Hoffs - Unconditional Love.wav

Peak level 97.7 % Range quality 100.0 % Test CRC 70325E7A Copy CRC 70325E7A Copy OK

No errors occurred

AccurateRip summary

Track 1 not present in databaseTrack 2 not present in databaseTrack 3 not present in database

None of the tracks are present in the AccurateRip database

End of status report
01 My Side of the Bed (3:29)
02 No Kind of Love (3:05)
03 Wishing On Telstar (4:11)
04 That's Why Girls Cry (3:59)
05 Unconditional Love (3:51)
06 Something New (3:52)
07 So Much for Love (3:33)
08 This Time (2:36)
09 Only Love (4:25)
10 It's Lonely Out Here (3:52)
11 Made of Stone (3:13)
12 Boys Keep Swinging (4:59)

Компакт-диск:
Columbia / Sony Music Entertainment 467202 2. Made in Austria.
Exact Audio Copy V0.99 prebeta 5 from 4. May 2009

EAC extraction logfile from 30. August 2010, 2:44

Susanna Hoffs / When You're A Boy

Used drive : ASUS DRW-2014L1 Adapter: 0 ID: 0

Read mode : SecureUtilize accurate stream : YesDefeat audio cache : YesMake use of C2 pointers : No

Read offset correction : 6Overread into Lead-In and Lead-Out : NoFill up missing offset samples with silence : YesDelete leading and trailing silent blocks : NoNull samples used in CRC calculations : YesUsed interface : Native Win32 interface for Win NT & 2000

Used output format : User Defined EncoderSelected bitrate : 1024 kBit/sQuality : HighAdd ID3 tag : NoCommand line compressor : C:\Program Files\Exact Audio Copy\FLAC\FLAC.EXEAdditional command line options : -8 -V -T "ARTIST=%a" -T "TITLE=%t" -T "ALBUM=%g" -T "DATE=%y" -T "TRACKNUMBER=%n" -T "GENRE=%m" -T "COMMENT=EAC FLAC -8" %s

TOC of the extracted CD

Track | Start | Length | Start sector | End sector --------------------------------------------------------- 1 | 0:00.00 | 3:28.60 | 0 | 15659 2 | 3:28.60 | 3:05.42 | 15660 | 29576 3 | 6:34.27 | 4:11.28 | 29577 | 48429 4 | 10:45.55 | 3:58.47 | 48430 | 66326 5 | 14:44.27 | 3:50.43 | 66327 | 83619 6 | 18:34.70 | 3:51.52 | 83620 | 100996 7 | 22:26.47 | 3:32.70 | 100997 | 116966 8 | 25:59.42 | 2:35.68 | 116967 | 128659 9 | 28:35.35 | 4:25.37 | 128660 | 148571 10 | 33:00.72 | 3:51.58 | 148572 | 165954 11 | 36:52.55 | 3:12.70 | 165955 | 180424 12 | 40:05.50 | 4:59.15 | 180425 | 202864

Range status and errors

Selected range

Filename C:\Susanna Hoffs - When You're A Boy (1991) [FLAC] {Columbia 467202 2}\Susanna Hoffs - When You're A Boy.wav

Peak level 99.3 % Range quality 100.0 % Test CRC DEEE93AD Copy CRC DEEE93AD Copy OK

No errors occurred

AccurateRip summary

Track 1 accurately ripped (confidence 33) [C70979D8]Track 2 accurately ripped (confidence 33) [89CC22C5]Track 3 accurately ripped (confidence 32) [C20D6DA6]Track 4 accurately ripped (confidence 33) [B11A5C80]Track 5 accurately ripped (confidence 33) [91762B0E]Track 6 accurately ripped (confidence 32) [048A6A47]Track 7 accurately ripped (confidence 33) [2CE70291]Track 8 accurately ripped (confidence 32) [B9A73F91]Track 9 accurately ripped (confidence 33) [BCE56050]Track 10 accurately ripped (confidence 33) [8C8E2F3A]Track 11 accurately ripped (confidence 33) [21EB245D]Track 12 accurately ripped (confidence 33) [D7355F07]

All tracks accurately ripped

End of status report
01 My Side of the Bed (3:29)
02 No Kind of Love (3:05)
03 Wishing On Telstar (4:11)
04 That's Why Girls Cry (3:59)
05 Unconditional Love (3:51)
06 Something New (3:52)
07 So Much for Love (3:33)
08 This Time (2:36)
09 Only Love (4:25)
10 It's Lonely Out Here (3:52)
11 Made of Stone (3:13)
12 Boys Keep Swinging (4:59)

Компакт-диск:
CBS / Sony Records (Japan) CSCS 5271. Made in Japan.
Exact Audio Copy V0.99 prebeta 5 from 4. May 2009

EAC extraction logfile from 30. August 2010, 3:03

Susanna Hoffs / When You're A Boy

Used drive : ASUS DRW-2014L1 Adapter: 0 ID: 0

Read mode : SecureUtilize accurate stream : YesDefeat audio cache : YesMake use of C2 pointers : No

Read offset correction : 6Overread into Lead-In and Lead-Out : NoFill up missing offset samples with silence : YesDelete leading and trailing silent blocks : NoNull samples used in CRC calculations : YesUsed interface : Native Win32 interface for Win NT & 2000

Used output format : User Defined EncoderSelected bitrate : 1024 kBit/sQuality : HighAdd ID3 tag : NoCommand line compressor : C:\Program Files\Exact Audio Copy\FLAC\FLAC.EXEAdditional command line options : -8 -V -T "ARTIST=%a" -T "TITLE=%t" -T "ALBUM=%g" -T "DATE=%y" -T "TRACKNUMBER=%n" -T "GENRE=%m" -T "COMMENT=EAC FLAC -8" %s

TOC of the extracted CD

Track | Start | Length | Start sector | End sector --------------------------------------------------------- 1 | 0:00.00 | 3:29.25 | 0 | 15699 2 | 3:29.25 | 3:05.42 | 15700 | 29616 3 | 6:34.67 | 4:11.10 | 29617 | 48451 4 | 10:46.02 | 3:58.65 | 48452 | 66366 5 | 14:44.67 | 3:50.43 | 66367 | 83659 6 | 18:35.35 | 3:51.52 | 83660 | 101036 7 | 22:27.12 | 3:32.68 | 101037 | 117004 8 | 26:00.05 | 2:35.70 | 117005 | 128699 9 | 28:36.00 | 4:25.37 | 128700 | 148611 10 | 33:01.37 | 3:51.58 | 148612 | 165994 11 | 36:53.20 | 3:12.72 | 165995 | 180466 12 | 40:06.17 | 5:00.10 | 180467 | 202976

Range status and errors

Selected range

Filename C:\Susanna Hoffs - When You're A Boy (1991) [FLAC] {CBS - Sony Records (Japan) CSCS 5271}\Susanna Hoffs - When You're A Boy.wav

Peak level 99.3 % Range quality 100.0 % Test CRC 5BC007A2 Copy CRC 5BC007A2 Copy OK

No errors occurred

AccurateRip summary

Track 1 not present in databaseTrack 2 not present in databaseTrack 3 not present in databaseTrack 4 not present in databaseTrack 5 not present in databaseTrack 6 not present in databaseTrack 7 not present in databaseTrack 8 not present in databaseTrack 9 not present in databaseTrack 10 not present in databaseTrack 11 not present in databaseTrack 12 not present in database

None of the tracks are present in the AccurateRip database

End of status report
01 Beekeepers Blues (3:55)
02 All I Want (3:18)
03 Enormous Wings (3:47)
04 Falling (4:12)
05 Darling One (5:33)
06 King of Tragedy (4:14)
07 Eyes of a Baby (4:51)
08 Grand Adventure (4:11)
09 Happy Place (3:10)
10 Those Days Are Over (4:04)
11 Weak With Love (4:18)
+"hidden tracks" *
12 To Sir with Love (2:52)
13 Stuck in the Middle with You (3:42)

Компакт-диск:
London Records 422 828 820-2. Made in USA.
* Американское издание включает в себя два дополнительных
"скрытых" трека, о которых не заявлено на обложке.
Exact Audio Copy V0.99 prebeta 5 from 4. May 2009

EAC extraction logfile from 30. August 2010, 3:25

Susanna Hoffs / Susanna Hoffs

Used drive : ASUS DRW-2014L1 Adapter: 0 ID: 0

Read mode : SecureUtilize accurate stream : YesDefeat audio cache : YesMake use of C2 pointers : No

Read offset correction : 6Overread into Lead-In and Lead-Out : NoFill up missing offset samples with silence : YesDelete leading and trailing silent blocks : NoNull samples used in CRC calculations : YesUsed interface : Native Win32 interface for Win NT & 2000

Used output format : User Defined EncoderSelected bitrate : 1024 kBit/sQuality : HighAdd ID3 tag : NoCommand line compressor : C:\Program Files\Exact Audio Copy\FLAC\FLAC.EXEAdditional command line options : -8 -V -T "ARTIST=%a" -T "TITLE=%t" -T "ALBUM=%g" -T "DATE=%y" -T "TRACKNUMBER=%n" -T "GENRE=%m" -T "COMMENT=EAC FLAC -8" %s

TOC of the extracted CD

Track | Start | Length | Start sector | End sector --------------------------------------------------------- 1 | 0:00.00 | 3:55.17 | 0 | 17641 2 | 3:55.17 | 3:18.28 | 17642 | 32519 3 | 7:13.45 | 3:47.22 | 32520 | 49566 4 | 11:00.67 | 4:12.25 | 49567 | 68491 5 | 15:13.17 | 5:32.55 | 68492 | 93446 6 | 20:45.72 | 4:14.23 | 93447 | 112519 7 | 25:00.20 | 4:50.67 | 112520 | 134336 8 | 29:51.12 | 4:11.65 | 134337 | 153226 9 | 34:03.02 | 3:10.45 | 153227 | 167521 10 | 37:13.47 | 4:02.35 | 167522 | 185706 11 | 41:16.07 | 5:03.20 | 185707 | 208451 12 | 46:19.27 | 2:57.13 | 208452 | 221739 13 | 49:16.40 | 3:42.25 | 221740 | 238414

Range status and errors

Selected range

Filename C:\Susanna Hoffs - Susanna Hoffs (1996) [FLAC] {London Records 422 828 820-2}\Susanna Hoffs - Susanna Hoffs.wav

Peak level 100.0 % Range quality 99.9 % Test CRC C66379DD Copy CRC C66379DD Copy OK

No errors occurred

AccurateRip summary

Track 1 accurately ripped (confidence 31) [DD7310E7]Track 2 accurately ripped (confidence 31) [CE02EB14]Track 3 accurately ripped (confidence 31) [76B8B6D4]Track 4 accurately ripped (confidence 31) [5F727B48]Track 5 accurately ripped (confidence 31) [DB4E2671]Track 6 accurately ripped (confidence 32) [29F90EA7]Track 7 accurately ripped (confidence 31) [02F3564E]Track 8 accurately ripped (confidence 31) [AF3E85EB]Track 9 accurately ripped (confidence 31) [6E01F290]Track 10 accurately ripped (confidence 31) [C68D6BB7]Track 11 accurately ripped (confidence 31) [8B9A1E1F]Track 12 accurately ripped (confidence 30) [D01E3C65]Track 13 accurately ripped (confidence 31) [DCD1B859]

All tracks accurately ripped

End of status report
01 Beekeepers Blues (3:55)
02 All I Want (3:18)
03 Enormous Wings (3:47)
04 Falling (4:12)
05 Darling One (5:33)
06 King of Tragedy (4:14)
07 Eyes of a Baby (4:51)
08 Grand Adventure (4:11)
09 Happy Place (3:10)
10 Those Days Are Over (4:04)
11 Weak With Love (4:18)
12 To Sir with Love (2:52) *
13 Turning Over (4:07) *
14 Catch The Wind (4:44) *
+ secret track:
15 Stuck in the Middle with You (3:42) *

Компакт-диск:
Polydor K.K. (Japan) POCD-1230. Made in Japan.
* Японское издание содержит четыре дополнительных трека,
о которых не заявлено на обложке.
Exact Audio Copy V0.99 prebeta 5 from 4. May 2009

EAC extraction logfile from 13. November 2010, 19:09

Susanna Hoffs / Susanna Hoffs (JPN)

Used drive : ASUS DRW-2014L1 Adapter: 0 ID: 0

Read mode : SecureUtilize accurate stream : YesDefeat audio cache : YesMake use of C2 pointers : No

Read offset correction : 6Overread into Lead-In and Lead-Out : NoFill up missing offset samples with silence : YesDelete leading and trailing silent blocks : NoNull samples used in CRC calculations : YesUsed interface : Native Win32 interface for Win NT & 2000

Used output format : User Defined EncoderSelected bitrate : 1024 kBit/sQuality : HighAdd ID3 tag : NoCommand line compressor : C:\Program Files\Exact Audio Copy\FLAC\FLAC.EXEAdditional command line options : -8 -V -T "ARTIST=%a" -T "TITLE=%t" -T "ALBUM=%g" -T "DATE=%y" -T "TRACKNUMBER=%n" -T "GENRE=%m" -T "COMMENT=EAC FLAC -8" %s

TOC of the extracted CD

Track | Start | Length | Start sector | End sector --------------------------------------------------------- 1 | 0:00.00 | 3:55.32 | 0 | 17656 2 | 3:55.32 | 3:18.35 | 17657 | 32541 3 | 7:13.67 | 3:47.10 | 32542 | 49576 4 | 11:01.02 | 4:12.45 | 49577 | 68521 5 | 15:13.47 | 5:32.43 | 68522 | 93464 6 | 20:46.15 | 4:13.35 | 93465 | 112474 7 | 24:59.50 | 4:50.70 | 112475 | 134294 8 | 29:50.45 | 4:11.42 | 134295 | 153161 9 | 34:02.12 | 3:10.25 | 153162 | 167436 10 | 37:12.37 | 4:03.18 | 167437 | 185679 11 | 41:15.55 | 4:19.12 | 185680 | 205116 12 | 45:34.67 | 2:53.23 | 205117 | 218114 13 | 48:28.15 | 4:07.62 | 218115 | 236701 14 | 52:36.02 | 4:44.28 | 236702 | 258029 15 | 57:20.30 | 3:42.62 | 258030 | 274741

Range status and errors

Selected range

Filename C:\Susanna Hoffs - Susanna Hoffs (JPN) (1996) [FLAC] {Polydor KK Japan POCD-1230}\Susanna Hoffs - Susanna Hoffs (JPN).wav

Peak level 100.0 % Range quality 100.0 % Test CRC CD7DE531 Copy CRC CD7DE531 Copy OK

No errors occurred

AccurateRip summary

Track 1 accurately ripped (confidence 1) [4E61C353]Track 2 accurately ripped (confidence 1) [4CE25EBB]Track 3 accurately ripped (confidence 1) [1EDAF214]Track 4 accurately ripped (confidence 1) [4B3C2421]Track 5 accurately ripped (confidence 1) [0E6E0AB0]Track 6 accurately ripped (confidence 1) [2BAD8A52]Track 7 accurately ripped (confidence 1) [07E80686]Track 8 accurately ripped (confidence 1) [FD5667D5]Track 9 accurately ripped (confidence 1) [1EDA2B19]Track 10 accurately ripped (confidence 1) [CD827581]Track 11 accurately ripped (confidence 1) [56BB713C]Track 12 accurately ripped (confidence 1) [F22C7153]Track 13 accurately ripped (confidence 1) [D3E3D264]Track 14 accurately ripped (confidence 1) [777B9110]Track 15 accurately ripped (confidence 1) [46A294FE]

All tracks accurately ripped

End of status report
01 All I Want (3:20)
02 Those Days Are Over [remix] (4:22)
03 Catch The Wind (3:57)
04 Anyone Else (3:43)

Компакт-диск:
London Records LONCD 387. Made in UK.
Exact Audio Copy V0.99 prebeta 5 from 4. May 2009

EAC extraction logfile from 30. August 2010, 6:11

Susanna Hoffs / All I Want

Used drive : ASUS DRW-2014L1 Adapter: 0 ID: 0

Read mode : SecureUtilize accurate stream : YesDefeat audio cache : YesMake use of C2 pointers : No

Read offset correction : 6Overread into Lead-In and Lead-Out : NoFill up missing offset samples with silence : YesDelete leading and trailing silent blocks : NoNull samples used in CRC calculations : YesUsed interface : Native Win32 interface for Win NT & 2000

Used output format : User Defined EncoderSelected bitrate : 1024 kBit/sQuality : HighAdd ID3 tag : NoCommand line compressor : C:\Program Files\Exact Audio Copy\FLAC\FLAC.EXEAdditional command line options : -8 -V -T "ARTIST=%a" -T "TITLE=%t" -T "ALBUM=%g" -T "DATE=%y" -T "TRACKNUMBER=%n" -T "GENRE=%m" -T "COMMENT=EAC FLAC -8" %s

TOC of the extracted CD

Track | Start | Length | Start sector | End sector --------------------------------------------------------- 1 | 0:00.00 | 3:20.28 | 0 | 15027 2 | 3:20.28 | 4:22.10 | 15028 | 34687 3 | 7:42.38 | 3:57.27 | 34688 | 52489 4 | 11:39.65 | 3:43.68 | 52490 | 69282

Range status and errors

Selected range

Filename C:\Susanna Hoffs - All I Want (single) (1996) [FLAC] {London Records LONCD 387}\Susanna Hoffs - All I Want.wav

Peak level 98.8 % Range quality 100.0 % Test CRC 9BB7135F Copy CRC 9BB7135F Copy OK

No errors occurred

AccurateRip summary

Track 1 accurately ripped (confidence 5) [890B9685]Track 2 accurately ripped (confidence 5) [7D7B7F1C]Track 3 accurately ripped (confidence 5) [4073E7D5]Track 4 accurately ripped (confidence 5) [45E4B93C]

All tracks accurately ripped

End of status report
01 Beekeeper's Blues (3:55)
02 Beekeeper's Blues (acoustic version) (4:05)
03 If She Knew What She Wants (acoustic version) (3:22)
04 Eternal Flame (acoustic version) (3:13)
05 Walking on a Wire (acoustic version) (2:54)

Компакт-диск:
London Records PRCD 7407-2. Made in USA. Promotional release.
Exact Audio Copy V0.99 prebeta 5 from 4. May 2009

EAC extraction logfile from 12. October 2012, 2:07

Susanna Hoffs / Beekeeper's Blues

Used drive : HP BD Combo 240d Adapter: 3 ID: 0

Read mode : SecureUtilize accurate stream : YesDefeat audio cache : YesMake use of C2 pointers : No

Read offset correction : 6Overread into Lead-In and Lead-Out : NoFill up missing offset samples with silence : YesDelete leading and trailing silent blocks : NoNull samples used in CRC calculations : YesUsed interface : Native Win32 interface for Win NT & 2000

Used output format : User Defined EncoderSelected bitrate : 1024 kBit/sQuality : HighAdd ID3 tag : NoCommand line compressor : C:\Program Files\Exact Audio Copy\FLAC\FLAC.EXEAdditional command line options : -8 -V -T "ARTIST=%a" -T "TITLE=%t" -T "ALBUM=%g" -T "DATE=%y" -T "TRACKNUMBER=%n" -T "GENRE=%m" -T "COMMENT=EAC FLAC -8" %s

TOC of the extracted CD

Track | Start | Length | Start sector | End sector --------------------------------------------------------- 1 | 0:00.32 | 3:56.00 | 32 | 17731 2 | 3:56.32 | 4:05.40 | 17732 | 36146 3 | 8:01.72 | 3:22.33 | 36147 | 51329 4 | 11:24.30 | 3:13.72 | 51330 | 65876 5 | 14:38.27 | 2:54.58 | 65877 | 78984

Range status and errors

Selected range

Filename C:\Susanna Hoffs - Beekeeper's Blues (single) (promo) (1997) [FLAC] {London Records PRCD 7407-2}\Susanna Hoffs - Beekeeper's Blues.wav

Peak level 100.0 % Range quality 100.0 % Test CRC A72E3D8A Copy CRC A72E3D8A Copy OK

No errors occurred

AccurateRip summary

Track 1 accurately ripped (confidence 1) [91B89313]Track 2 accurately ripped (confidence 1) [D0004F8E]Track 3 accurately ripped (confidence 1) [E054F39E]Track 4 accurately ripped (confidence 1) [080EB4D0]Track 5 accurately ripped (confidence 1) [2FCAC63E]

All tracks accurately ripped

End of status report
01 November Sun (2:58)
02 Always Enough (3:38)
03 Picture Me (2:57)
04 One Day (3:41)
05 Holding My Breath (3:07)
06 All I Need (2:32)
07 Raining (3:09)
08 Regret (2:33)
09 This Is the Place (2:59)
10 True (3:25)

Компакт-диск:
Baroque Folk 78253-2. Made in USA.
Exact Audio Copy V0.99 prebeta 5 from 4. May 2009

EAC extraction logfile from 12. October 2012, 1:28

Susanna Hoffs / Someday

Used drive : HP BD Combo 240d Adapter: 3 ID: 0

Read mode : SecureUtilize accurate stream : YesDefeat audio cache : YesMake use of C2 pointers : No

Read offset correction : 6Overread into Lead-In and Lead-Out : NoFill up missing offset samples with silence : YesDelete leading and trailing silent blocks : NoNull samples used in CRC calculations : YesUsed interface : Native Win32 interface for Win NT & 2000

Used output format : User Defined EncoderSelected bitrate : 1024 kBit/sQuality : HighAdd ID3 tag : NoCommand line compressor : C:\Program Files\Exact Audio Copy\FLAC\FLAC.EXEAdditional command line options : -8 -V -T "ARTIST=%a" -T "TITLE=%t" -T "ALBUM=%g" -T "DATE=%y" -T "TRACKNUMBER=%n" -T "GENRE=%m" -T "COMMENT=EAC FLAC -8" %s

TOC of the extracted CD

Track | Start | Length | Start sector | End sector --------------------------------------------------------- 1 | 0:00.00 | 2:58.33 | 0 | 13382 2 | 2:58.33 | 3:38.31 | 13383 | 29763 3 | 6:36.64 | 2:57.51 | 29764 | 43089 4 | 9:34.40 | 3:41.65 | 43090 | 59729 5 | 13:16.30 | 3:07.47 | 59730 | 73801 6 | 16:24.02 | 2:32.45 | 73802 | 85246 7 | 18:56.47 | 3:09.59 | 85247 | 99480 8 | 22:06.31 | 2:33.70 | 99481 | 111025 9 | 24:40.26 | 2:59.29 | 111026 | 124479 10 | 27:39.55 | 3:25.05 | 124480 | 139859

Range status and errors

Selected range

Filename C:\Susanna Hoffs - Someday (2012) [FLAC] {Baroque Folk 78253-2}\Susanna Hoffs - Someday.wav

Peak level 99.2 % Range quality 100.0 % Test CRC BDC20A11 Copy CRC BDC20A11 Copy OK

No errors occurred

AccurateRip summary

Track 1 cannot be verified as accurate (confidence 2) [E59031D1], AccurateRip returned [C179182A]Track 2 cannot be verified as accurate (confidence 2) [F56081EC], AccurateRip returned [A1F8E033]Track 3 cannot be verified as accurate (confidence 2) [C96DE273], AccurateRip returned [56223731]Track 4 cannot be verified as accurate (confidence 2) [94B89E81], AccurateRip returned [D1347165]Track 5 cannot be verified as accurate (confidence 2) [0FC8C220], AccurateRip returned [B9FFBB8D]Track 6 cannot be verified as accurate (confidence 2) [C38E9CD2], AccurateRip returned [757CC82C]Track 7 cannot be verified as accurate (confidence 2) [75B0C9E1], AccurateRip returned [64BB96FF]Track 8 cannot be verified as accurate (confidence 2) [AC92AC60], AccurateRip returned [AFC56DC4]Track 9 cannot be verified as accurate (confidence 2) [B50CCF3F], AccurateRip returned [5B776206]Track 10 cannot be verified as accurate (confidence 2) [4323DE03], AccurateRip returned [24EDAE3D]

No tracks could be verified as accurateYou may have a different pressing from the one(s) in the database

End of status report


Трекер:  [ 14-Окт-2012 11:15 ]

  

Скачать .torrent

Размер .torrent файла 19 KB


Размер: 2.06 GB
Хэш (hash) релиза: c70aa562a20392c871682f25c7045c009b421b

Еще никто не оставлял запись к записи скачать торрент Susanna Hoffs - Дискография 1990-2012, FLAC . Будь первым!

!Обратная связь