Скачать через торрент музыку Benny Joy - Crash the Rockabilly Party 54-57 - 1998, бесплатно без регистрации torrent

Если у вас наблюдаются проблемы со скриншотами, переходом по ссылками, скачиванием торрентов - проблемы в блокировщике рекламы AdBlock. #хорошегоДня!


Статистика раздачи
Размер:  229 MB   |    Зарегистрирован:  4 года 10 месяцев   |    .torrent скачан:  22 раза   |   
Раздают:  1  
   
Загрузка...
 
Автор Сообщение

Galfimbul

avatar Galfimbul


Benny Joy / Crash the Rockabilly Party

Жанр: Rockabilly
Страна-производитель диска: UK
Год издания: 1998
Издатель (лейбл): Ace Records
Номер по каталогу: CDCHD 703
Страна: USA
Аудиокодек: FLAC (*.flac)
Тип рипа: image+.cue
Битрейт аудио: lossless
Продолжительность: 70:59
Источник (релизер): AUDELAS KINGDOM
Наличие сканов в содержимом раздачи: да

01. Crash the Party
02. Little Red Book
03. Miss Bobby Sox
04. Spin the Bottle
05. Hey High School Baby
06. Steady With Betty
07. Ittie Bittie Everything
08. Rollin' to the Jukebox Rock
09. Kiss Me
10. I'm Gonna Move
11. Button Nose
12. Bundle of Love
13. In Study Hall
14. Rebel Rock
15. Gossip, Gossip, Gossip
16. I'll Never Have the One I Love
17. Cutie Pie
18. A Dream, a Hope and a Love
19. Come Back
20. Stompin'
21. She Cried for Me
22. Dearest Darling
23. Don't Boo Hoo Mary Lou
24. Hold My Hand
25. Wild Wild Lover
26. Money, Money
27. Hey High School Baby
28. Crash the Party


Доп. информация: http://www.youtube.com/watch?v=bvyTzKTOgD0
Exact Audio Copy V1.0 beta 2 from 29. April 2011

EAC extraction logfile from 10. October 2012, 22:18

Benny Joy / Crash the Rockabilly Party

Used drive : _NEC DVD_RW ND-3550A Adapter: 1 ID: 0

Read mode : SecureUtilize accurate stream : YesDefeat audio cache : YesMake use of C2 pointers : No

Read offset correction : 48Overread into Lead-In and Lead-Out : NoFill up missing offset samples with silence : YesDelete leading and trailing silent blocks : NoNull samples used in CRC calculations : YesUsed interface : Native Win32 interface for Win NT & 2000

Used output format : User Defined EncoderSelected bitrate : 768 kBit/sQuality : HighAdd ID3 tag : NoCommand line compressor : C:\Program Files\Exact Audio Copy\FLAC\FLAC.EXEAdditional command line options : -6 -V -T "ARTIST=%artist%" -T "TITLE=%title%" -T "ALBUM=%albumtitle%" -T "DATE=%year%" -T "TRACKNUMBER=%tracknr%" -T "GENRE=%genre%" -T "COMMENT=%comment%" -T "BAND=%albuminterpret%" -T "COMPOSER=%composer%" %haslyrics%--ta

TOC of the extracted CD

Track | Start | Length | Start sector | End sector --------------------------------------------------------- 1 | 0:00.00 | 3:00.67 | 0 | 13566 2 | 3:00.67 | 2:10.65 | 13567 | 23381 3 | 5:11.57 | 2:28.33 | 23382 | 34514 4 | 7:40.15 | 2:34.52 | 34515 | 46116 5 | 10:14.67 | 2:44.35 | 46117 | 58451 6 | 12:59.27 | 2:26.35 | 58452 | 69436 7 | 15:25.62 | 2:20.00 | 69437 | 79936 8 | 17:45.62 | 2:38.68 | 79937 | 91854 9 | 20:24.55 | 2:47.02 | 91855 | 104381 10 | 23:11.57 | 2:47.25 | 104382 | 116931 11 | 25:59.07 | 2:50.15 | 116932 | 129696 12 | 28:49.22 | 2:27.35 | 129697 | 140756 13 | 31:16.57 | 2:53.23 | 140757 | 153754 14 | 34:10.05 | 2:46.42 | 153755 | 166246 15 | 36:56.47 | 3:16.15 | 166247 | 180961 16 | 40:12.62 | 3:19.48 | 180962 | 195934 17 | 43:32.35 | 1:26.17 | 195935 | 202401 18 | 44:58.52 | 2:46.68 | 202402 | 214919 19 | 47:45.45 | 1:53.22 | 214920 | 223416 20 | 49:38.67 | 2:33.70 | 223417 | 234961 21 | 52:12.62 | 2:19.50 | 234962 | 245436 22 | 54:32.37 | 2:14.25 | 245437 | 255511 23 | 56:46.62 | 2:03.63 | 255512 | 264799 24 | 58:50.50 | 2:45.35 | 264800 | 277209 25 | 61:36.10 | 2:59.50 | 277210 | 290684 26 | 64:35.60 | 2:27.62 | 290685 | 301771 27 | 67:03.47 | 2:35.25 | 301772 | 313421 28 | 69:38.72 | 2:33.33 | 313422 | 324929

Range status and errors

Selected range

Filename D:\Muzika\Benny Joy - Crash The Rockabilly Party (1998)\Benny Joy - Crash the Rockabilly Party.wav

Peak level 100.0 % Extraction speed 5.5 X Range quality 99.9 % Test CRC 24EAD5A8 Copy CRC 24EAD5A8 Copy OK

No errors occurred

AccurateRip summary

Track 1 not present in databaseTrack 2 not present in databaseTrack 3 not present in databaseTrack 4 not present in databaseTrack 5 not present in databaseTrack 6 not present in databaseTrack 7 not present in databaseTrack 8 not present in databaseTrack 9 not present in databaseTrack 10 not present in databaseTrack 11 not present in databaseTrack 12 not present in databaseTrack 13 not present in databaseTrack 14 not present in databaseTrack 15 not present in databaseTrack 16 not present in databaseTrack 17 not present in databaseTrack 18 not present in databaseTrack 19 not present in databaseTrack 20 not present in databaseTrack 21 not present in databaseTrack 22 not present in databaseTrack 23 not present in databaseTrack 24 not present in databaseTrack 25 not present in databaseTrack 26 not present in databaseTrack 27 not present in databaseTrack 28 not present in database

None of the tracks are present in the AccurateRip database

End of status report

==== Log checksum 616D8438EFB0117C07CEA4E1FFCCE541AE1D2A64DC998E9ADABCCE4695D91AC8 ====


Трекер:  [ 14-Окт-2012 11:15 ]

  

Скачать .torrent

Размер .torrent файла 19 KB


Размер: 229 MB
Хэш (hash) релиза: d7479f403a9a59f0d3a9e719b779472be85268ed

Еще никто не оставлял запись к записи скачать торрент Benny Joy - Crash the Rockabilly Party 54-57 - 1998, . Будь первым!

!Обратная связь