Скачать через торрент музыку Pride Of Lions - Immortal бесплатно без регистрации torrent

Если у вас наблюдаются проблемы со скриншотами, переходом по ссылками, скачиванием торрентов - проблемы в блокировщике рекламы AdBlock. #хорошегоДня!


Статистика раздачи
Размер:  388 MB   |    Зарегистрирован:  4 года 10 месяцев   |    .torrent скачан:  17 раз   |   
Раздают:  1  
   
Загрузка...
 
Автор Сообщение

Galfimbul

avatar Galfimbul


Pride Of Lions ~ Immortal (2012)
Жанр: Melodic Hard Rock / AOR
Страна-производитель диска: Italy
Год издания: 2012
Издатель (лейбл): Frontiers Records
Номер по каталогу: FR CD 566
Страна: USA
Аудиокодек: APE (*.ape)
Тип рипа: image+.cue
Битрейт аудио: lossless
Продолжительность: 51:57
Источник (релизер): Собственный рип с оригинального диска
Наличие сканов в содержимом раздачи: да
Треклист:
1. Immortal
2. Delusional
3. Tie Down The Wind
4. Shine On
5. Everything That Money Can't Buy
6. Coin Of The Realm
7. Sending My Love
8. Vital Signs
9. If It Doesn't Kill Me
10. Are You The Same Girl
11. Ask Me Yesterday
Exact Audio Copy V0.99 prebeta 5 from 4. May 2009

EAC extraction logfile from 10. October 2012, 17:36

Pride Of Lions / Immortal

Used drive : HL-DT-STDVDRAM GH24LS70 Adapter: 1 ID: 1

Read mode : SecureUtilize accurate stream : YesDefeat audio cache : YesMake use of C2 pointers : No

Read offset correction : 667Overread into Lead-In and Lead-Out : NoFill up missing offset samples with silence : YesDelete leading and trailing silent blocks : NoNull samples used in CRC calculations : YesUsed interface : Installed external ASPI interface

Used output format : Internal WAV RoutinesSample format : 44.100 Hz; 16 Bit; Stereo

TOC of the extracted CD

Track | Start | Length | Start sector | End sector --------------------------------------------------------- 1 | 0:00.00 | 5:00.35 | 0 | 22534 2 | 5:00.35 | 4:36.56 | 22535 | 43290 3 | 9:37.16 | 5:15.03 | 43291 | 66918 4 | 14:52.19 | 4:39.06 | 66919 | 87849 5 | 19:31.25 | 4:32.73 | 87850 | 108322 6 | 24:04.23 | 4:30.52 | 108323 | 128624 7 | 28:35.00 | 4:56.64 | 128625 | 150888 8 | 33:31.64 | 4:07.43 | 150889 | 169456 9 | 37:39.32 | 4:43.51 | 169457 | 190732 10 | 42:23.08 | 5:20.65 | 190733 | 214797 11 | 47:43.73 | 4:13.03 | 214798 | 233775

Range status and errors

Selected range

Filename E:\Rip by GriffonNest\Pride Of Lions - Immortal (2012)\Immortal.wav

Peak level 100.0 % Range quality 100.0 % Copy CRC E6B510A8 Copy OK

No errors occurred

End of status report
[b]Toby Hitchcock (Lead Vocals)
Jim Peterik Lead & Backing Vocals, Acoustic & Electric Guitar, Keyboards, Bass, Percussion)


Трекер:  [ 14-Окт-2012 11:15 ]

  

Скачать .torrent

Размер .torrent файла 16 KB


Размер: 388 MB
Хэш (hash) релиза: 0e503bb8e0264170aecb5a83541601ad39a9ef78

Еще никто не оставлял запись к записи скачать торрент Pride Of Lions - Immortal . Будь первым!

!Обратная связь