Скачать через торрент музыку Overhead - Death By Monkeys - 2012, FLAC бесплатно без регистрации torrent

Если у вас наблюдаются проблемы со скриншотами, переходом по ссылками, скачиванием торрентов - проблемы в блокировщике рекламы AdBlock. #хорошегоДня!


Статистика раздачи
Размер:  238 MB   |    Зарегистрирован:  5 лет 1 месяц   |    .torrent скачан:  20 раз   |   
Раздают:  1  
   
Загрузка...
 
Автор Сообщение

Galfimbul

avatar Galfimbul


Overhead / Death By Monkeys

Жанр: Crossover Prog
Год издания: 2012
Издатель (лейбл): Plus Loin Music
Страна: Finland
Аудиокодек: FLAC (*.flac)
Тип рипа: tracks+.cue
Битрейт аудио: lossless
Продолжительность:37:00
Источник (релизер): What.cd
Наличие сканов в содержимом раздачи: нет
Треклист:
1. Death By Monkeys 2:04
2. Other Dissidents 2:47
3. My Moon Resort 4:29
4. Justice for My Enemy 3:08
5. NWO 4:05
6. Dead Man Walking 2:52
7. Touch of God 3:25
8. The Destroyer 4:28
9. Hit It in the Wild 2:57
10. Do the Right Thing 2:57
11. Light Years 3:38

http://www.overhead-band.com/
http://www.facebook.com/overheadband
http://www.myspace.com/overheadband
X Lossless Decoder version 20120908 (141.1)

XLD extraction logfile from 2012-10-10 17:24:54 +0200

Overhead / Death By Monkeys

Used drive : HL-DT-ST DVDRW GS31N (revision TA17)

Ripper mode : XLD Secure RipperDisable audio cache : OK for the drive with a cache less than 1375KiBMake use of C2 pointers : NORead offset correction : 667Max retry count : 100Gap status : Analyzed, Appended (except HTOA)

TOC of the extracted CD Track | Start | Length | Start sector | End sector --------------------------------------------------------- 1 | 00:00:00 | 02:04:11 | 0 | 9310 2 | 02:04:11 | 02:47:05 | 9311 | 21840 3 | 04:51:16 | 04:29:41 | 21841 | 42056 4 | 09:20:57 | 03:08:07 | 42057 | 56163 5 | 12:28:64 | 04:05:60 | 56164 | 74598 6 | 16:34:49 | 02:52:15 | 74599 | 87513 7 | 19:26:64 | 03:25:50 | 87514 | 102938 8 | 22:52:39 | 04:28:24 | 102939 | 123062 9 | 27:20:63 | 02:57:21 | 123063 | 136358 10 | 30:18:09 | 02:57:06 | 136359 | 149639 11 | 33:15:15 | 03:38:56 | 149640 | 166045

AccurateRip Summary Disc not found in AccurateRip DB.

All Tracks Album gain : -9.67 dB Peak : 1.000000 Statistics Read error : 0 Jitter error (maybe fixed) : 0 Retry sector count : 0 Damaged sector count : 0

Track 01 Filename : /Users/jimi00/Desktop/Overhead - Death By Monkeys (2012) [FLAC]/01 Death By Monkeys.flac Pre-gap length : 00:02:00

Track gain : -10.65 dB Peak : 1.000000 CRC32 hash (test run) : D7C2C0F5 CRC32 hash : D7C2C0F5 CRC32 hash (skip zero) : 0555AC93 AccurateRip v1 signature : 503C3852 AccurateRip v2 signature : 793D523D ->Track not present in AccurateRip database. Statistics Read error : 0 Jitter error (maybe fixed) : 0 Retry sector count : 0 Damaged sector count : 0

Track 02 Filename : /Users/jimi00/Desktop/Overhead - Death By Monkeys (2012) [FLAC]/02 Other Dissidents.flac

Track gain : -9.59 dB Peak : 1.000000 CRC32 hash (test run) : 67D1CD7F CRC32 hash : 67D1CD7F CRC32 hash (skip zero) : 93654352 AccurateRip v1 signature : 90E9915E AccurateRip v2 signature : 4F5391D8 ->Track not present in AccurateRip database. Statistics Read error : 0 Jitter error (maybe fixed) : 0 Retry sector count : 0 Damaged sector count : 0

Track 03 Filename : /Users/jimi00/Desktop/Overhead - Death By Monkeys (2012) [FLAC]/03 My Moon Resort.flac

Track gain : -8.96 dB Peak : 1.000000 CRC32 hash (test run) : 9E86DE63 CRC32 hash : 9E86DE63 CRC32 hash (skip zero) : 064F732C AccurateRip v1 signature : B4D54169 AccurateRip v2 signature : 0AAE7030 ->Track not present in AccurateRip database. Statistics Read error : 0 Jitter error (maybe fixed) : 0 Retry sector count : 0 Damaged sector count : 0

Track 04 Filename : /Users/jimi00/Desktop/Overhead - Death By Monkeys (2012) [FLAC]/04 Justice For My Enemy.flac

Track gain : -9.46 dB Peak : 1.000000 CRC32 hash (test run) : 095A546E CRC32 hash : 095A546E CRC32 hash (skip zero) : 8D8AD14D AccurateRip v1 signature : 762AC66F AccurateRip v2 signature : 4D36116D ->Track not present in AccurateRip database. Statistics Read error : 0 Jitter error (maybe fixed) : 0 Retry sector count : 0 Damaged sector count : 0

Track 05 Filename : /Users/jimi00/Desktop/Overhead - Death By Monkeys (2012) [FLAC]/05 NWO.flac Pre-gap length : 00:01:05

Track gain : -9.36 dB Peak : 1.000000 CRC32 hash (test run) : ADA0E28E CRC32 hash : ADA0E28E CRC32 hash (skip zero) : EDC6D823 AccurateRip v1 signature : 1B4BBDE9 AccurateRip v2 signature : B24D69AB ->Track not present in AccurateRip database. Statistics Read error : 0 Jitter error (maybe fixed) : 0 Retry sector count : 0 Damaged sector count : 0

Track 06 Filename : /Users/jimi00/Desktop/Overhead - Death By Monkeys (2012) [FLAC]/06 Dead Man Walking.flac Pre-gap length : 00:00:54

Track gain : -10.11 dB Peak : 0.989685 CRC32 hash (test run) : E0BB29DD CRC32 hash : E0BB29DD CRC32 hash (skip zero) : 98800A09 AccurateRip v1 signature : C5E93072 AccurateRip v2 signature : D553147F ->Track not present in AccurateRip database. Statistics Read error : 0 Jitter error (maybe fixed) : 0 Retry sector count : 0 Damaged sector count : 0

Track 07 Filename : /Users/jimi00/Desktop/Overhead - Death By Monkeys (2012) [FLAC]/07 Touch Of God.flac

Track gain : -9.59 dB Peak : 1.000000 CRC32 hash (test run) : D1A7311F CRC32 hash : D1A7311F CRC32 hash (skip zero) : 2AC506F6 AccurateRip v1 signature : D5B7EF4B AccurateRip v2 signature : FDCAA6E8 ->Track not present in AccurateRip database. Statistics Read error : 0 Jitter error (maybe fixed) : 0 Retry sector count : 0 Damaged sector count : 0

Track 08 Filename : /Users/jimi00/Desktop/Overhead - Death By Monkeys (2012) [FLAC]/08 The Destroyer.flac

Track gain : -7.45 dB Peak : 1.000000 CRC32 hash (test run) : 447947CE CRC32 hash : 447947CE CRC32 hash (skip zero) : 63A0AB3D AccurateRip v1 signature : E7A8F673 AccurateRip v2 signature : 27636EC3 ->Track not present in AccurateRip database. Statistics Read error : 0 Jitter error (maybe fixed) : 0 Retry sector count : 0 Damaged sector count : 0

Track 09 Filename : /Users/jimi00/Desktop/Overhead - Death By Monkeys (2012) [FLAC]/09 Hit It In The Wild.flac Pre-gap length : 00:01:20

Track gain : -10.44 dB Peak : 1.000000 CRC32 hash (test run) : D7CDE0A5 CRC32 hash : D7CDE0A5 CRC32 hash (skip zero) : 404E32A7 AccurateRip v1 signature : B55C33F5 AccurateRip v2 signature : 8CDFF765 ->Track not present in AccurateRip database. Statistics Read error : 0 Jitter error (maybe fixed) : 0 Retry sector count : 0 Damaged sector count : 0

Track 10 Filename : /Users/jimi00/Desktop/Overhead - Death By Monkeys (2012) [FLAC]/10 Do The Right Thing.flac

Track gain : -8.87 dB Peak : 1.000000 CRC32 hash (test run) : 62ED2A69 CRC32 hash : 62ED2A69 CRC32 hash (skip zero) : AF550DB5 AccurateRip v1 signature : 7FE9A72B AccurateRip v2 signature : A86F7097 ->Track not present in AccurateRip database. Statistics Read error : 0 Jitter error (maybe fixed) : 0 Retry sector count : 0 Damaged sector count : 0

Track 11 Filename : /Users/jimi00/Desktop/Overhead - Death By Monkeys (2012) [FLAC]/11 Light Years.flac

Track gain : -9.98 dB Peak : 1.000000 CRC32 hash (test run) : 704E4B72 CRC32 hash : 704E4B72 CRC32 hash (skip zero) : 52AC200F AccurateRip v1 signature : 72BDA0DD AccurateRip v2 signature : B58B926A ->Track not present in AccurateRip database. Statistics Read error : 0 Jitter error (maybe fixed) : 0 Retry sector count : 0 Damaged sector count : 0

No errors occurred

End of status report
TITLE "Death By Monkeys"PERFORMER "Overhead"REM GENRE "Rock"REM DATE "2012"REM DISCNUMBER 1REM TOTALDISCS 1REM DISCID 9B08A50BREM REPLAYGAIN_ALBUM_GAIN -9.67 dBREM REPLAYGAIN_ALBUM_PEAK 1.000000FILE "01 Death By Monkeys.flac" WAVE TRACK 01 AUDIO TITLE "Death By Monkeys" SONGWRITER "Nicolas Leroux" ISRC FR2IT1100056 REM REPLAYGAIN_TRACK_GAIN -10.65 dB REM REPLAYGAIN_TRACK_PEAK 1.000000 INDEX 01 00:00:00FILE "02 Other Dissidents.flac" WAVE TRACK 02 AUDIO TITLE "Other Dissidents" SONGWRITER "Nicolas Leroux" ISRC FR2IT1100057 REM REPLAYGAIN_TRACK_GAIN -9.59 dB REM REPLAYGAIN_TRACK_PEAK 1.000000 INDEX 01 00:00:00FILE "03 My Moon Resort.flac" WAVE TRACK 03 AUDIO TITLE "My Moon Resort" SONGWRITER "Nicolas Leroux" ISRC FR2IT1100058 REM REPLAYGAIN_TRACK_GAIN -8.96 dB REM REPLAYGAIN_TRACK_PEAK 1.000000 INDEX 01 00:00:00FILE "04 Justice For My Enemy.flac" WAVE TRACK 04 AUDIO TITLE "Justice For My Enemy" SONGWRITER "Nicolas Leroux" ISRC FR2IT1100059 REM REPLAYGAIN_TRACK_GAIN -9.46 dB REM REPLAYGAIN_TRACK_PEAK 1.000000 INDEX 01 00:00:00 TRACK 05 AUDIO TITLE "NWO" SONGWRITER "Nicolas Leroux" ISRC FR2IT1100060 REM REPLAYGAIN_TRACK_GAIN -9.36 dB REM REPLAYGAIN_TRACK_PEAK 1.000000 INDEX 00 03:07:02FILE "05 NWO.flac" WAVE INDEX 01 00:00:00 TRACK 06 AUDIO TITLE "Dead Man Walking" SONGWRITER "Nicolas Leroux" ISRC FR2IT1100061 REM REPLAYGAIN_TRACK_GAIN -10.11 dB REM REPLAYGAIN_TRACK_PEAK 0.989685 INDEX 00 04:05:06FILE "06 Dead Man Walking.flac" WAVE INDEX 01 00:00:00FILE "07 Touch Of God.flac" WAVE TRACK 07 AUDIO TITLE "Touch Of God" SONGWRITER "Nicolas Leroux" ISRC FR2IT1100062 REM REPLAYGAIN_TRACK_GAIN -9.59 dB REM REPLAYGAIN_TRACK_PEAK 1.000000 INDEX 01 00:00:00FILE "08 The Destroyer.flac" WAVE TRACK 08 AUDIO TITLE "The Destroyer" SONGWRITER "Nicolas Leroux" ISRC FR2IT1100063 REM REPLAYGAIN_TRACK_GAIN -7.45 dB REM REPLAYGAIN_TRACK_PEAK 1.000000 INDEX 01 00:00:00 TRACK 09 AUDIO TITLE "Hit It In The Wild" SONGWRITER "Nicolas Leroux" ISRC FR2IT1100064 REM REPLAYGAIN_TRACK_GAIN -10.44 dB REM REPLAYGAIN_TRACK_PEAK 1.000000 INDEX 00 04:27:04FILE "09 Hit It In The Wild.flac" WAVE INDEX 01 00:00:00FILE "10 Do The Right Thing.flac" WAVE TRACK 10 AUDIO TITLE "Do The Right Thing" SONGWRITER "Nicolas Leroux" ISRC FR2IT1100065 REM REPLAYGAIN_TRACK_GAIN -8.87 dB REM REPLAYGAIN_TRACK_PEAK 1.000000 INDEX 01 00:00:00FILE "11 Light Years.flac" WAVE TRACK 11 AUDIO TITLE "Light Years" SONGWRITER "Nicolas Leroux" ISRC FR2IT1100066 REM REPLAYGAIN_TRACK_GAIN -9.98 dB REM REPLAYGAIN_TRACK_PEAK 1.000000 INDEX 01 00:00:00
http://www.youtube.com/watch?v=lKZfHERJSL4
http://www.youtube.com/watch?v=lRpdfcw5B0U
http://www.youtube.com/watch?v=wyD4RG6u3-o

Трекер:  [ 14-Окт-2012 11:15 ]

  

Скачать .torrent

Размер .torrent файла 19 KB


Размер: 238 MB
Хэш (hash) релиза: 41e690b8d17cd4824b7bff12963d36595d1a6bc0

Еще никто не оставлял запись к записи скачать торрент Overhead - Death By Monkeys - 2012, FLAC . Будь первым!

!Обратная связь