Скачать через торрент музыку CCS - The Best Band in the Land бесплатно без регистрации torrent

Если у вас наблюдаются проблемы со скриншотами, переходом по ссылками, скачиванием торрентов - проблемы в блокировщике рекламы AdBlock. #хорошегоДня!


Статистика раздачи
Размер:  318 MB   |    Зарегистрирован:  5 лет   |    .torrent скачан:  24 раза   |   
Раздают:  2  
   
Загрузка...
 
Автор Сообщение

Galfimbul

avatar Galfimbul


CCS / The Best Band in the Land (1973)

Жанр: Blues Rock,Jazz Rock
Год издания: 2001
Аудиокодек: FLAC (*.flac)
Тип рипа: image+.cue
Битрейт аудио: lossless
Продолжительность: 45:22
Источник (релизер): my disc
Наличие сканов в содержимом раздачи: да
Треклист:
01. The Band Played The Boogie (Reedman / Cameron) [0:03:49.72]
02. Wild Witch Lady (Leitch) [0:04:00.21]
03. Lola (Davies) [0:03:35.50]
04. Primitive Love (Chinn / Chapman) [0:03:15.15]
05. Hundred Highways (Cameron) [0:03:49.59]
06. Shakin' All Over (Heath) [0:03:08.45]
07. Memphis (Cameron) [0:03:40.51]
08. Sunshine Of Your Love (Bruce / Clapton / Brown) [0:03:39.18]
09. Our Man In London (Cameron) [0:02:22.57]
10. Cannibal Sheep (Korner) [0:03:35.40]
bonus:
11. Hang It On Me (Cameron) [0:03:59.50]
12. Hurricane Coming (Scott) [0:03:14.43]
13. Dragster (Cameron / Hayes) [0:03:10.27]
Exact Audio Copy V0.99 prebeta 4 from 23. January 2008

Отчёт EAC об извлечении, выполненном 10. октября 2012, 18:08

CCS / The Best Band In The Land

Дисковод: ASUS DRW-1814BL Adapter: 1 ID: 0

Режим чтения : ДостоверностьИспользование точного потока : ДаОтключение кэша аудио : ДаИспользование указателей C2 : Нет

Коррекция смещения при чтении : 6Способность читать области Lead-in и Lead-out : НетЗаполнение пропущенных сэмплов тишиной : ДаУдаление блоков с тишиной в начале и конце : НетПри вычислениях CRC использовались нулевые сэмплы : ДаИнтерфейс : Установленный внешний ASPI-интерфейс

Выходной формат : Пользовательский кодировщикВыбранный битрейт : 1024 kBit/sКачество : ВысокийДобавление ID3-тэга : НетУтилита сжатия : C:\Program Files\Exact Audio Copy\FLAC\FLAC.EXEДополнительные параметры : -6 -V -T "ARTIST=%a" -T "TITLE=%t" -T "ALBUM=%g" -T "DATE=%y" -T "TRACKNUMBER=%n" -T "GENRE=%m" -T "COMMENT=%e" %s -o %d

TOC извлечённого CD

Трек | Старт | Длительность | Начальный сектор | Конечный сектор --------------------------------------------------------------------- 1 | 0:00.00 | 3:49.72 | 0 | 17246 2 | 3:49.72 | 4:00.21 | 17247 | 35267 3 | 7:50.18 | 3:35.50 | 35268 | 51442 4 | 11:25.68 | 3:15.15 | 51443 | 66082 5 | 14:41.08 | 3:49.59 | 66083 | 83316 6 | 18:30.67 | 3:08.45 | 83317 | 97461 7 | 21:39.37 | 3:40.51 | 97462 | 114012 8 | 25:20.13 | 3:39.18 | 114013 | 130455 9 | 28:59.31 | 2:22.57 | 130456 | 141162 10 | 31:22.13 | 3:35.40 | 141163 | 157327 11 | 34:57.53 | 3:59.50 | 157328 | 175302 12 | 38:57.28 | 3:14.43 | 175303 | 189895 13 | 42:11.71 | 3:10.27 | 189896 | 204172

Характеристики диапазона извлечения и сообщения об ошибках

Выбранный диапазон

Имя файла D:\loSSleSS\CCS'73\CCS - The Best Band In The Land.wav

Пиковый уровень 98.8 % Качество диапазона 100.0 % CRC теста BD65D332 CRC копии BD65D332 Копирование... OK

Ошибок не произошло

AccurateRip: сводка

Трек 1 точность не определена (достоверность 7) [CD66B9E3], AccurateRip вернул [97893A9B]Трек 2 точность не определена (достоверность 7) [99653C32], AccurateRip вернул [23DF6CC6]Трек 3 точность не определена (достоверность 7) [8AD74019], AccurateRip вернул [25D50255]Трек 4 точность не определена (достоверность 7) [3321BD7F], AccurateRip вернул [12E2C6EB]Трек 5 точность не определена (достоверность 7) [C888B2B3], AccurateRip вернул [AA93F54F]Трек 6 точность не определена (достоверность 7) [E1F860EA], AccurateRip вернул [014D0506]Трек 7 точность не определена (достоверность 7) [F9EAB60E], AccurateRip вернул [714DF32E]Трек 8 точность не определена (достоверность 7) [3401C3BF], AccurateRip вернул [931839AF]Трек 9 точность не определена (достоверность 7) [847217FB], AccurateRip вернул [D5234083]Трек 10 точность не определена (достоверность 7) [186C7E3F], AccurateRip вернул [11804443]Трек 11 точность не определена (достоверность 7) [31256AE0], AccurateRip вернул [18B77078]Трек 12 точность не определена (достоверность 7) [10DB1CC1], AccurateRip вернул [F3E45805]Трек 13 точность не определена (достоверность 7) [FD8C0E7D], AccurateRip вернул [8B7FCAD5]

Ни один трек не прошёл проверки на точностьВ вашей базе может быть иной вариант штамповки диска

Конец отчёта
После распада New Church в конце 1970 года Корнер продолжил совместную работу с Торупом, а затем этот тандем связался с продюсером Мики Мостом и композитором/коммерсантом Джоном Камероном и создал студийный биг-банд CCS (Collective Consciousness Society). Тогда же эта группа отметилась в английских списках с версией гимна Whole Lotta Love группы Led Zeррelin - позже эта песня была использована как музыкальная тема для телепередачи БиБиСи Тор of the Рoрs.


Трекер:  [ 14-Окт-2012 11:15 ]

  

Скачать .torrent

Размер .torrent файла 13 KB


Размер: 318 MB
Хэш (hash) релиза: 824f30548e30f6734c2edd6a115e110a8318d6ee

Еще никто не оставлял запись к записи скачать торрент CCS - The Best Band in the Land . Будь первым!

!Обратная связь