Скачать через торрент музыку Status Quo - Albums on CD 1970- 1986 бесплатно без регистрации torrent

Если у вас наблюдаются проблемы со скриншотами, переходом по ссылками, скачиванием торрентов - проблемы в блокировщике рекламы AdBlock. #хорошегоДня!


Статистика раздачи
Размер:  5.6 GB   |    Зарегистрирован:  5 лет 1 месяц   |    .torrent скачан:  26 раз   |   
Раздают:  1  
   
Загрузка...
 
Автор Сообщение

Galfimbul

avatar Galfimbul


STATUS QUO

Albums on CD 1970- 1986 ( Germany, England & Japan - 1st Press )


Жанр : Hard Rock
Аудио кодек: FLAC
Тип рипа: image+.cue
Битрейт аудио: lossless

Рипы сделаны с оригинальных изданий. Сканы в полном объеме, в качестве 600 dpi.


01. Face Without A Soul
02. You're Just What I Was Lokking For Today
03. Are You Growing Tired Of My Love
04. Antique Angelique
05. So Ends Another Life
06. Poor Old Man
07. Mr. Mind Detector
08. The Clown
09. Velvet Curtains
10. Little Miss Nothing
11. When I Wake
12. Nothing At All
Exact Audio Copy V0.99 prebeta 5 from 4. May 2009

Отчёт EAC об извлечении, выполненном 14. марта 2010, 9:45

Status Quo / Spare Parts

Дисковод: HL-DT-STDVDRAM GSA-T20N Adapter: 1 ID: 0

Режим чтения : Достоверность
Использование точного потока : Да
Отключение кэша аудио : Да
Использование указателей C2 : Нет

Коррекция смещения при чтении : 667
Способность читать области Lead-in и Lead-out : Нет
Заполнение пропущенных сэмплов тишиной : Да
Удаление блоков с тишиной в начале и конце : Нет
При вычислениях CRC использовались нулевые сэмплы : Да
Интерфейс : Встроенный Win32-интерфейс для Win NT/2000

Выходной формат : Пользовательский кодировщик
Выбранный битрейт : 768 kBit/s
Качество : Высокий
Добавление ID3-тэга : Нет
Утилита сжатия : C:\Program Files\Exact Audio Copy\FLAC\FLAC.EXE
Дополнительные параметры : -8 -V %s

TOC извлечённого CD

Трек | Старт | Длительность | Начальный сектор | Конечный сектор
---------------------------------------------------------------------
1 | 0:00.32 | 3:09.58 | 32 | 14264
2 | 3:10.15 | 3:50.45 | 14265 | 31559
3 | 7:00.60 | 3:35.32 | 31560 | 47716
4 | 10:36.17 | 3:22.28 | 47717 | 62894
5 | 13:58.45 | 3:12.07 | 62895 | 77301
6 | 17:10.52 | 3:36.68 | 77302 | 93569
7 | 20:47.45 | 4:01.72 | 93570 | 111716
8 | 24:49.42 | 3:24.40 | 111717 | 127056
9 | 28:14.07 | 2:56.38 | 127057 | 140294
10 | 31:10.45 | 3:00.00 | 140295 | 153794
11 | 34:10.45 | 3:49.42 | 153795 | 171011
12 | 38:00.12 | 3:50.70 | 171012 | 188331

Характеристики диапазона извлечения и сообщения об ошибках

Выбранный диапазон

Имя файла D:\uTorrent.compl\Status Quo -Studio Albums 1970-1986\Spare Parts (Castle CLACD 205)\Status Quo - Spare Parts.wav

Пиковый уровень 100.0 %
Качество диапазона 99.9 %
CRC теста 50003AB3
CRC копии 50003AB3
Копирование... OK

Ошибок не произошло

AccurateRip: сводка

Трек 1 нет в базе данных
Трек 2 нет в базе данных
Трек 3 нет в базе данных
Трек 4 нет в базе данных
Трек 5 нет в базе данных
Трек 6 нет в базе данных
Трек 7 нет в базе данных
Трек 8 нет в базе данных
Трек 9 нет в базе данных
Трек 10 нет в базе данных
Трек 11 нет в базе данных
Трек 12 нет в базе данных

Ни одного трека нет в базе AccurateRip

Конец отчёта


01. Face Without A Soul
02. You're Just What I Was Lokking For Today
03. Are You Growing Tired Of My Love
04. Antique Angelique
05. So Ends Another Life
06. Poor Old Man
07. Mr. Mind Detector
08. The Clown
09. Velvet Curtains
10. Little Miss Nothing
11. When I Wake
12. Nothing At All
Exact Audio Copy V0.99 prebeta 5 from 4. May 2009

Отчёт EAC об извлечении, выполненном 16. августа 2012, 13:18

Status Quo / Spare Parts

Дисковод: ASUS SDRW-08D2S-U Adapter: 2 ID: 0

Режим чтения : Достоверность
Использование точного потока : Да
Отключение кэша аудио : Да
Использование указателей C2 : Нет

Коррекция смещения при чтении : 103
Способность читать области Lead-in и Lead-out : Нет
Заполнение пропущенных сэмплов тишиной : Да
Удаление блоков с тишиной в начале и конце : Нет
При вычислениях CRC использовались нулевые сэмплы : Да
Интерфейс : Встроенный Win32-интерфейс для Win NT/2000

Выходной формат : Пользовательский кодировщик
Выбранный битрейт : 768 kBit/s
Качество : Высокий
Добавление ID3-тэга : Нет
Утилита сжатия : C:\Program Files\Exact Audio Copy\FLAC\FLAC.EXE
Дополнительные параметры : -8 -V %s

TOC извлечённого CD

Трек | Старт | Длительность | Начальный сектор | Конечный сектор
---------------------------------------------------------------------
1 | 0:00.32 | 3:10.00 | 32 | 14281
2 | 3:10.32 | 3:50.38 | 14282 | 31569
3 | 7:00.70 | 3:35.37 | 31570 | 47731
4 | 10:36.32 | 3:22.38 | 47732 | 62919
5 | 13:58.70 | 3:12.00 | 62920 | 77319
6 | 17:10.70 | 3:37.00 | 77320 | 93594
7 | 20:47.70 | 4:02.00 | 93595 | 111744
8 | 24:49.70 | 3:24.37 | 111745 | 127081
9 | 28:14.32 | 2:56.38 | 127082 | 140319
10 | 31:10.70 | 3:00.00 | 140320 | 153819
11 | 34:10.70 | 3:49.37 | 153820 | 171031
12 | 38:00.32 | 3:50.40 | 171032 | 188321

Характеристики диапазона извлечения и сообщения об ошибках

Выбранный диапазон

Имя файла D:\uTorrent.compl\Status Quo - 16 Studio Albums on CD ( 1970-1986 )\Spare Parts (Teldec PRT 8.26694 )\Status Quo - Spare Parts.wav

Пиковый уровень 100.0 %
Качество диапазона 100.0 %
CRC теста 49173BEA
CRC копии 49173BEA
Копирование... OK

Ошибок не произошло

AccurateRip: сводка

Трек 1 нет в базе данных
Трек 2 нет в базе данных
Трек 3 нет в базе данных
Трек 4 нет в базе данных
Трек 5 нет в базе данных
Трек 6 нет в базе данных
Трек 7 нет в базе данных
Трек 8 нет в базе данных
Трек 9 нет в базе данных
Трек 10 нет в базе данных
Трек 11 нет в базе данных
Трек 12 нет в базе данных

Ни одного трека нет в базе AccurateRip

Конец отчёта
" Piledriver "

01. Donґt Waste My Time
02. O Baby
03. A Year
04. Unspoken Words
05. Big Fat Mama
06. Paper Plane
07. All The Reasons
08. Roadhouse Blues

" Hello " "

09. Roll Over Lay Down
10. Claudie
11. A Reason For Living
12. Blue Eyed Lady
13. Caroline
14. Softer Ride
15. And It's Better Now
Exact Audio Copy V0.99 prebeta 5 from 4. May 2009

Отчёт EAC об извлечении, выполненном 16. августа 2012, 14:49

Status Quo / Piledriver & Hello

Дисковод: ASUS SDRW-08D2S-U Adapter: 2 ID: 0

Режим чтения : Достоверность
Использование точного потока : Да
Отключение кэша аудио : Да
Использование указателей C2 : Нет

Коррекция смещения при чтении : 103
Способность читать области Lead-in и Lead-out : Нет
Заполнение пропущенных сэмплов тишиной : Да
Удаление блоков с тишиной в начале и конце : Нет
При вычислениях CRC использовались нулевые сэмплы : Да
Интерфейс : Встроенный Win32-интерфейс для Win NT/2000

Выходной формат : Пользовательский кодировщик
Выбранный битрейт : 768 kBit/s
Качество : Высокий
Добавление ID3-тэга : Нет
Утилита сжатия : C:\Program Files\Exact Audio Copy\FLAC\FLAC.EXE
Дополнительные параметры : -8 -V %s

TOC извлечённого CD

Трек | Старт | Длительность | Начальный сектор | Конечный сектор
---------------------------------------------------------------------
1 | 0:00.00 | 4:24.20 | 0 | 19819
2 | 4:24.20 | 4:41.47 | 19820 | 40941
3 | 9:05.67 | 5:50.65 | 40942 | 67256
4 | 14:56.57 | 5:13.70 | 67257 | 90801
5 | 20:10.52 | 5:58.13 | 90802 | 117664
6 | 26:08.65 | 3:00.60 | 117665 | 131224
7 | 29:09.50 | 3:42.37 | 131225 | 147911
8 | 32:52.12 | 7:33.40 | 147912 | 181926
9 | 40:25.52 | 5:44.70 | 181927 | 207796
10 | 46:10.47 | 4:06.20 | 207797 | 226266
11 | 50:16.67 | 3:46.63 | 226267 | 243279
12 | 54:03.55 | 3:54.72 | 243280 | 260901
13 | 57:58.52 | 4:19.53 | 260902 | 280379
14 | 62:18.30 | 4:02.70 | 280380 | 298599
15 | 66:21.25 | 3:20.15 | 298600 | 313614

Характеристики диапазона извлечения и сообщения об ошибках

Выбранный диапазон

Имя файла D:\uTorrent.compl\Status Quo - 16 Studio Albums on CD ( 1970-1986 )\Piledriver & Hello ( Nippon Phonogram 33PD-362 )\Status Quo - Piledriver & Hello.wav

Пиковый уровень 100.0 %
Качество диапазона 100.0 %
CRC теста C4F7ADD3
CRC копии C4F7ADD3
Копирование... OK

Ошибок не произошло

AccurateRip: сводка

Трек 1 нет в базе данных
Трек 2 нет в базе данных
Трек 3 нет в базе данных
Трек 4 нет в базе данных
Трек 5 нет в базе данных
Трек 6 нет в базе данных
Трек 7 нет в базе данных
Трек 8 нет в базе данных
Трек 9 нет в базе данных
Трек 10 нет в базе данных
Трек 11 нет в базе данных
Трек 12 нет в базе данных
Трек 13 нет в базе данных
Трек 14 нет в базе данных
Трек 15 нет в базе данных

Ни одного трека нет в базе AccurateRip

Конец отчёта


01. Donґt Waste My Time
02. O Baby
03. A Year
04. Unspoken Words
05. Big Fat Mama
06. Paper Plane
07. All The Reasons
08. Roadhouse Blues
09. Joanne (b-side of "Caroline")
10. Lonely Night (b-side of "Break The Rules")
Exact Audio Copy V0.99 prebeta 5 from 4. May 2009

Отчёт EAC об извлечении, выполненном 14. марта 2010, 18:20

Status Quo / Piledriver +

Дисковод: HL-DT-STDVDRAM GSA-T20N Adapter: 1 ID: 0

Режим чтения : Достоверность
Использование точного потока : Да
Отключение кэша аудио : Да
Использование указателей C2 : Нет

Коррекция смещения при чтении : 667
Способность читать области Lead-in и Lead-out : Нет
Заполнение пропущенных сэмплов тишиной : Да
Удаление блоков с тишиной в начале и конце : Нет
При вычислениях CRC использовались нулевые сэмплы : Да
Интерфейс : Встроенный Win32-интерфейс для Win NT/2000

Выходной формат : Пользовательский кодировщик
Выбранный битрейт : 768 kBit/s
Качество : Высокий
Добавление ID3-тэга : Нет
Утилита сжатия : C:\Program Files\Exact Audio Copy\FLAC\FLAC.EXE
Дополнительные параметры : -8 -V %s

TOC извлечённого CD

Трек | Старт | Длительность | Начальный сектор | Конечный сектор
---------------------------------------------------------------------
1 | 0:00.33 | 4:23.42 | 33 | 19799
2 | 4:24.00 | 4:41.70 | 19800 | 40944
3 | 9:05.70 | 5:51.20 | 40945 | 67289
4 | 14:57.15 | 5:12.60 | 67290 | 90749
5 | 20:10.00 | 5:57.33 | 90750 | 117557
6 | 26:07.33 | 3:02.00 | 117558 | 131207
7 | 29:09.33 | 3:42.45 | 131208 | 147902
8 | 32:52.03 | 7:33.55 | 147903 | 181932
9 | 40:25.58 | 4:10.45 | 181933 | 200727
10 | 44:36.28 | 3:32.32 | 200728 | 216659

Характеристики диапазона извлечения и сообщения об ошибках

Выбранный диапазон

Имя файла D:\uTorrent.compl\Status Quo -Studio Albums 1970-1986\Piledriver (Repertoire REP 4119-WP)\Status Quo - Piledriver +.wav

Пиковый уровень 86.0 %
Качество диапазона 100.0 %
CRC теста EB334B90
CRC копии EB334B90
Копирование... OK

Ошибок не произошло

AccurateRip: сводка

Трек 1 нет в базе данных
Трек 2 нет в базе данных
Трек 3 нет в базе данных
Трек 4 нет в базе данных
Трек 5 нет в базе данных
Трек 6 нет в базе данных
Трек 7 нет в базе данных
Трек 8 нет в базе данных
Трек 9 нет в базе данных
Трек 10 нет в базе данных

Ни одного трека нет в базе AccurateRip

Конец отчёта


01. Roll Over Lay Down
02. Claudie
03. Reason For Living
04. Blue Eyed Lady
05. Caroline
06. Softer Ride
07. And It's Better Now
08. Forty-Five Hundred Times
Exact Audio Copy V0.99 prebeta 5 from 4. May 2009

Отчёт EAC об извлечении, выполненном 16. августа 2012, 11:29

Status Quo / Hello

Дисковод: ASUS SDRW-08D2S-U Adapter: 2 ID: 0

Режим чтения : Достоверность
Использование точного потока : Да
Отключение кэша аудио : Да
Использование указателей C2 : Нет

Коррекция смещения при чтении : 103
Способность читать области Lead-in и Lead-out : Нет
Заполнение пропущенных сэмплов тишиной : Да
Удаление блоков с тишиной в начале и конце : Нет
При вычислениях CRC использовались нулевые сэмплы : Да
Интерфейс : Встроенный Win32-интерфейс для Win NT/2000

Выходной формат : Пользовательский кодировщик
Выбранный битрейт : 768 kBit/s
Качество : Высокий
Добавление ID3-тэга : Нет
Утилита сжатия : C:\Program Files\Exact Audio Copy\FLAC\FLAC.EXE
Дополнительные параметры : -8 -V %s

TOC извлечённого CD

Трек | Старт | Длительность | Начальный сектор | Конечный сектор
---------------------------------------------------------------------
1 | 0:00.00 | 5:45.32 | 0 | 25906
2 | 5:45.32 | 4:06.08 | 25907 | 44364
3 | 9:51.40 | 3:46.35 | 44365 | 61349
4 | 13:38.00 | 3:54.52 | 61350 | 78951
5 | 17:32.52 | 4:19.00 | 78952 | 98376
6 | 21:51.52 | 4:02.43 | 98377 | 116569
7 | 25:54.20 | 3:20.32 | 116570 | 131601
8 | 29:14.52 | 9:53.60 | 131602 | 176136

Характеристики диапазона извлечения и сообщения об ошибках

Выбранный диапазон

Имя файла D:\uTorrent.compl\Status Quo - 16 Studio Albums on CD ( 1970-1986 )\Hello ! (Vertigo 848 172-2)\Status Quo - Hello.wav

Пиковый уровень 100.0 %
Качество диапазона 100.0 %
CRC теста CA93E774
CRC копии CA93E774
Копирование... OK

Ошибок не произошло

AccurateRip: сводка

Трек 1 точное извлечение (доверие 10) [959D9B24]
Трек 2 точное извлечение (доверие 9) [4695692A]
Трек 3 точное извлечение (доверие 10) [2D525FB7]
Трек 4 точное извлечение (доверие 10) [A71F1453]
Трек 5 точное извлечение (доверие 9) [0D17375A]
Трек 6 точное извлечение (доверие 10) [883E92DC]
Трек 7 точное извлечение (доверие 9) [2B80D3BA]
Трек 8 точное извлечение (доверие 10) [F557CE66]

Все треки извлечены точно

Конец отчёта
" Quo "

01. Backwater
02. Just Take Me
03. Break The Rules
04. Drifting Away
05. Don't Think It Matters
06. Fine Fine Fine
07. Lonely Man
08. Slow Train

" Blue For You "
09. Is There A Better Way
10. Mad About The Boy
11. Ring Of A Change
12. Blue For You
13. Rain
14. Rolling Home
15. That's A Fact
16. Ease Your Mind
17. Mystery Song
Exact Audio Copy V0.99 prebeta 5 from 4. May 2009

Отчёт EAC об извлечении, выполненном 10. сентября 2012, 20:24

Status Quo / Quo & Blue For You

Дисковод: ASUS SDRW-08D2S-U Adapter: 2 ID: 0

Режим чтения : Достоверность
Использование точного потока : Да
Отключение кэша аудио : Да
Использование указателей C2 : Нет

Коррекция смещения при чтении : 103
Способность читать области Lead-in и Lead-out : Нет
Заполнение пропущенных сэмплов тишиной : Да
Удаление блоков с тишиной в начале и конце : Нет
При вычислениях CRC использовались нулевые сэмплы : Да
Интерфейс : Встроенный Win32-интерфейс для Win NT/2000

Выходной формат : Пользовательский кодировщик
Выбранный битрейт : 768 kBit/s
Качество : Высокий
Добавление ID3-тэга : Нет
Утилита сжатия : C:\Program Files\Exact Audio Copy\FLAC\FLAC.EXE
Дополнительные параметры : -8 -V %s

TOC извлечённого CD

Трек | Старт | Длительность | Начальный сектор | Конечный сектор
---------------------------------------------------------------------
1 | 0:00.33 | 4:21.52 | 33 | 19659
2 | 4:22.10 | 3:35.28 | 19660 | 35812
3 | 7:57.38 | 3:40.05 | 35813 | 52317
4 | 11:37.43 | 5:03.30 | 52318 | 75072
5 | 16:40.73 | 4:52.22 | 75073 | 96994
6 | 21:33.20 | 2:32.25 | 96995 | 108419
7 | 24:05.45 | 5:08.70 | 108420 | 131589
8 | 29:14.40 | 7:55.65 | 131590 | 167279
9 | 37:10.30 | 3:29.03 | 167280 | 182957
10 | 40:39.33 | 3:34.42 | 182958 | 199049
11 | 44:14.00 | 4:19.33 | 199050 | 218507
12 | 48:33.33 | 4:08.10 | 218508 | 237117
13 | 52:41.43 | 4:36.05 | 237118 | 257822
14 | 57:17.48 | 3:04.00 | 257823 | 271622
15 | 60:21.48 | 4:20.45 | 271623 | 291167
16 | 64:42.18 | 3:13.40 | 291168 | 305682
17 | 67:55.58 | 6:32.50 | 305683 | 335132

Характеристики диапазона извлечения и сообщения об ошибках

Выбранный диапазон

Имя файла D:\uTorrent.compl\Status Quo - 16 Studio Albums on CD ( 1970-1986 )\Quo, 1974 & Blue For You, 1976 (1991 Original Germany Press, Vertigo 848 089-2)\Status Quo - Quo & Blue For You.wav

Пиковый уровень 99.7 %
Качество диапазона 100.0 %
CRC теста BE85F172
CRC копии BE85F172
Копирование... OK

Ошибок не произошло

AccurateRip: сводка

Трек 1 точное извлечение (доверие 10) [8AADAA1A]
Трек 2 точное извлечение (доверие 9) [0F37A2CA]
Трек 3 точное извлечение (доверие 10) [D7369A13]
Трек 4 точное извлечение (доверие 10) [B7820566]
Трек 5 точное извлечение (доверие 10) [854A0111]
Трек 6 точное извлечение (доверие 10) [8C8DA5AD]
Трек 7 точное извлечение (доверие 10) [A964D417]
Трек 8 точное извлечение (доверие 10) [8E51AE7B]
Трек 9 точное извлечение (доверие 10) [0BDF7EBD]
Трек 10 точное извлечение (доверие 10) [5EF60BEF]
Трек 11 точное извлечение (доверие 10) [E3D6E13F]
Трек 12 точное извлечение (доверие 10) [DE23F777]
Трек 13 точное извлечение (доверие 10) [0A86F93A]
Трек 14 точное извлечение (доверие 10) [80301BA0]
Трек 15 точное извлечение (доверие 10) [A689B2C9]
Трек 16 точное извлечение (доверие 10) [77E1D2A8]
Трек 17 точное извлечение (доверие 9) [F0FCE6B2]

Все треки извлечены точно

Конец отчёта


01. Little Lady
02. Most Of The Time
03. I Saw The Light
04. Over And Done
05. Nightride
06. Down Down
07. Broken Man
08. What To Do
09. Where I Am
10. Bye Bye Johnny
Exact Audio Copy V0.99 prebeta 5 from 4. May 2009

Отчёт EAC об извлечении, выполненном 16. августа 2012, 16:34

Status Quo / On The Level

Дисковод: ASUS SDRW-08D2S-U Adapter: 2 ID: 0

Режим чтения : Достоверность
Использование точного потока : Да
Отключение кэша аудио : Да
Использование указателей C2 : Нет

Коррекция смещения при чтении : 103
Способность читать области Lead-in и Lead-out : Нет
Заполнение пропущенных сэмплов тишиной : Да
Удаление блоков с тишиной в начале и конце : Нет
При вычислениях CRC использовались нулевые сэмплы : Да
Интерфейс : Встроенный Win32-интерфейс для Win NT/2000

Выходной формат : Пользовательский кодировщик
Выбранный битрейт : 768 kBit/s
Качество : Высокий
Добавление ID3-тэга : Нет
Утилита сжатия : C:\Program Files\Exact Audio Copy\FLAC\FLAC.EXE
Дополнительные параметры : -8 -V %s

TOC извлечённого CD

Трек | Старт | Длительность | Начальный сектор | Конечный сектор
---------------------------------------------------------------------
1 | 0:00.33 | 3:02.00 | 33 | 13682
2 | 3:02.33 | 3:25.12 | 13683 | 29069
3 | 6:27.45 | 3:42.38 | 29070 | 45757
4 | 10:10.08 | 3:57.37 | 45758 | 63569
5 | 14:07.45 | 3:54.50 | 63570 | 81169
6 | 18:02.20 | 5:27.38 | 81170 | 105732
7 | 23:29.58 | 4:16.12 | 105733 | 124944
8 | 27:45.70 | 3:11.00 | 124945 | 139269
9 | 30:56.70 | 2:46.13 | 139270 | 151732
10 | 33:43.08 | 4:43.50 | 151733 | 173007

Характеристики диапазона извлечения и сообщения об ошибках

Выбранный диапазон

Имя файла D:\uTorrent.compl\Status Quo - 16 Studio Albums on CD ( 1970-1986 )\On The Level, 1975 (1990 Original West Germany Press, Vertigo 842 101-2)\Status Quo - On The Level.wav

Пиковый уровень 75.0 %
Качество диапазона 100.0 %
CRC теста 45B953D0
CRC копии 45B953D0
Копирование... OK

Ошибок не произошло

AccurateRip: сводка

Трек 1 точное извлечение (доверие 5) [1903C2F4]
Трек 2 точное извлечение (доверие 5) [59562052]
Трек 3 точное извлечение (доверие 5) [8B8AC53F]
Трек 4 точное извлечение (доверие 5) [1FDEBD26]
Трек 5 точное извлечение (доверие 5) [8EF7D5E5]
Трек 6 точное извлечение (доверие 5) [65B9409B]
Трек 7 точное извлечение (доверие 5) [43A0C136]
Трек 8 точное извлечение (доверие 5) [E11C9C64]
Трек 9 точное извлечение (доверие 5) [7256C7C1]
Трек 10 точное извлечение (доверие 5) [6BDA1297]

Все треки извлечены точно

Конец отчёта


01. Hard Time
02. Can't Give You More
03. Let's Ride
04. Baby Boy
05. You Don't Own Me
06. Rockers Rollin'
07. Rockin' All Over The World
08. Who Am I
09. Too Far Gone
10. For You
11. Dirty Water
12. Hold You Back
Exact Audio Copy V0.99 prebeta 5 from 4. May 2009

Отчёт EAC об извлечении, выполненном 9. октября 2012, 12:01

Status Quo / Rockin' All Over The World

Дисковод: ASUS SDRW-08D2S-U Adapter: 2 ID: 0

Режим чтения : Достоверность
Использование точного потока : Да
Отключение кэша аудио : Да
Использование указателей C2 : Нет

Коррекция смещения при чтении : 103
Способность читать области Lead-in и Lead-out : Нет
Заполнение пропущенных сэмплов тишиной : Да
Удаление блоков с тишиной в начале и конце : Нет
При вычислениях CRC использовались нулевые сэмплы : Да
Интерфейс : Встроенный Win32-интерфейс для Win NT/2000

Выходной формат : Пользовательский кодировщик
Выбранный битрейт : 768 kBit/s
Качество : Высокий
Добавление ID3-тэга : Нет
Утилита сжатия : C:\Program Files\Exact Audio Copy\FLAC\FLAC.EXE
Дополнительные параметры : -8 -V %s

TOC извлечённого CD

Трек | Старт | Длительность | Начальный сектор | Конечный сектор
---------------------------------------------------------------------
1 | 0:00.07 | 4:45.45 | 7 | 21426
2 | 4:45.52 | 4:15.73 | 21427 | 40624
3 | 9:01.50 | 3:03.02 | 40625 | 54351
4 | 12:04.52 | 3:12.55 | 54352 | 68806
5 | 15:17.32 | 3:03.65 | 68807 | 82596
6 | 18:21.22 | 4:19.43 | 82597 | 102064
7 | 22:40.65 | 3:36.67 | 102065 | 118331
8 | 26:17.57 | 4:30.70 | 118332 | 138651
9 | 30:48.52 | 3:08.35 | 138652 | 152786
10 | 33:57.12 | 3:01.05 | 152787 | 166366
11 | 36:58.17 | 3:51.13 | 166367 | 183704
12 | 40:49.30 | 4:30.20 | 183705 | 203974

Характеристики диапазона извлечения и сообщения об ошибках

Выбранный диапазон

Имя файла D:\uTorrent.compl\Status Quo - 16 Studio Albums on CD ( 1970-1986 )\Rockin' All Over The World, 1977 (1991 Original Germany Press, Vertigo 848 173-2)\Status Quo - Rockin' All Over The World.wav

Пиковый уровень 100.0 %
Качество диапазона 100.0 %
CRC теста 750BEA35
CRC копии 750BEA35
Копирование... OK

Ошибок не произошло

AccurateRip: сводка

Трек 1 точное извлечение (доверие 19) [110C5216]
Трек 2 точное извлечение (доверие 18) [B7DEE764]
Трек 3 точное извлечение (доверие 18) [C0218082]
Трек 4 точное извлечение (доверие 18) [C6D76B11]
Трек 5 точное извлечение (доверие 18) [F93F3799]
Трек 6 точное извлечение (доверие 17) [967FC9FD]
Трек 7 точное извлечение (доверие 19) [ED751B05]
Трек 8 точное извлечение (доверие 18) [38CF9AAA]
Трек 9 точное извлечение (доверие 18) [304C3BCC]
Трек 10 точное извлечение (доверие 17) [0769FD23]
Трек 11 точное извлечение (доверие 18) [77580BE9]
Трек 12 точное извлечение (доверие 16) [B860D19B]

Все треки извлечены точно

Конец отчёта
" If You Can't Stand The Heat "

01. Again And Again
02. I'm Giving Up My Worryin'
03. Gonna Teach You To Love Me
04. Someone Show Me Home
05. Long Legged Linda
06. Oh! What A Night
07. Accident Prone
08. Stones
09. Let Me Fly
10. Like A Good Girl

" 1+9+8+2 "

11. She Don't Fool Me
12. Young Pretender
13. Get Out And Walk
14. Jealousy
15. I Love Rock And Roll
16. Resurrection
17. Dear John
18. Doesn't Matter
19. I Want The World To Know
20. I Should Have Known
21. Big Man
Exact Audio Copy V0.99 prebeta 5 from 4. May 2009

Отчёт EAC об извлечении, выполненном 19. августа 2012, 19:18

Status Quo / If You Can't Stand The Heat + 1982

Дисковод: ASUS SDRW-08D2S-U Adapter: 2 ID: 0

Режим чтения : Достоверность
Использование точного потока : Да
Отключение кэша аудио : Да
Использование указателей C2 : Нет

Коррекция смещения при чтении : 103
Способность читать области Lead-in и Lead-out : Нет
Заполнение пропущенных сэмплов тишиной : Да
Удаление блоков с тишиной в начале и конце : Нет
При вычислениях CRC использовались нулевые сэмплы : Да
Интерфейс : Встроенный Win32-интерфейс для Win NT/2000

Выходной формат : Пользовательский кодировщик
Выбранный битрейт : 768 kBit/s
Качество : Высокий
Добавление ID3-тэга : Нет
Утилита сжатия : C:\Program Files\Exact Audio Copy\FLAC\FLAC.EXE
Дополнительные параметры : -8 -V %s

TOC извлечённого CD

Трек | Старт | Длительность | Начальный сектор | Конечный сектор
---------------------------------------------------------------------
1 | 0:00.33 | 3:39.00 | 33 | 16457
2 | 3:39.33 | 3:03.50 | 16458 | 30232
3 | 6:43.08 | 3:09.37 | 30233 | 44444
4 | 9:52.45 | 3:51.50 | 44445 | 61819
5 | 13:44.20 | 3:29.63 | 61820 | 77557
6 | 17:14.08 | 3:45.37 | 77558 | 94469
7 | 20:59.45 | 5:05.63 | 94470 | 117407
8 | 26:05.33 | 3:57.37 | 117408 | 135219
9 | 30:02.70 | 4:22.13 | 135220 | 154882
10 | 34:25.08 | 3:29.25 | 154883 | 170582
11 | 37:54.33 | 4:33.12 | 170583 | 191069
12 | 42:27.45 | 3:33.25 | 191070 | 207069
13 | 46:00.70 | 3:09.63 | 207070 | 221307
14 | 49:10.58 | 2:55.12 | 221308 | 234444
15 | 52:05.70 | 3:17.13 | 234445 | 249232
16 | 55:23.08 | 3:54.00 | 249233 | 266782
17 | 59:17.08 | 3:14.12 | 266783 | 281344
18 | 62:31.20 | 3:41.25 | 281345 | 297944
19 | 66:12.45 | 3:23.13 | 297945 | 313182
20 | 69:35.58 | 3:31.12 | 313183 | 329019
21 | 73:06.70 | 3:43.63 | 329020 | 345807

Характеристики диапазона извлечения и сообщения об ошибках

Выбранный диапазон

Имя файла D:\uTorrent.compl\Status Quo - 16 Studio Albums on CD ( 1970-1986 )\If You Cant't Stand The Heat, 1978 & 1+9+8+2, 1982 (1991 Original Germany Press, Vertigo 848 090-2)\Status Quo - If You Can't Stand The Heat + 1982.wav

Пиковый уровень 100.0 %
Качество диапазона 100.0 %
CRC теста DD471367
CRC копии DD471367
Копирование... OK

Ошибок не произошло

AccurateRip: сводка

Трек 1 точное извлечение (доверие 6) [0B18103D]
Трек 2 точное извлечение (доверие 6) [9A66A2B4]
Трек 3 точное извлечение (доверие 6) [B7EAA746]
Трек 4 точное извлечение (доверие 6) [05A7AC46]
Трек 5 точное извлечение (доверие 6) [9A2B3F9F]
Трек 6 точное извлечение (доверие 6) [1778BF19]
Трек 7 точное извлечение (доверие 6) [AC7F4E49]
Трек 8 точное извлечение (доверие 6) [CA9F7DAA]
Трек 9 точное извлечение (доверие 6) [FE4D9B15]
Трек 10 точное извлечение (доверие 6) [690BEC8C]
Трек 11 точное извлечение (доверие 6) [87DB9333]
Трек 12 точное извлечение (доверие 6) [E06C8348]
Трек 13 точное извлечение (доверие 6) [98DFE903]
Трек 14 точное извлечение (доверие 6) [E592DA0F]
Трек 15 точное извлечение (доверие 6) [D277088B]
Трек 16 точное извлечение (доверие 6) [64727A02]
Трек 17 точное извлечение (доверие 6) [E379BB40]
Трек 18 точное извлечение (доверие 6) [EE814F52]
Трек 19 точное извлечение (доверие 6) [CC75D115]
Трек 20 точное извлечение (доверие 6) [77BC1CE7]
Трек 21 точное извлечение (доверие 6) [E1FE05FD]

Все треки извлечены точно

Конец отчёта
" Whatever You Want "

01. Whatever You Want
02. Shady Lady
03. Who Asked You
04. Your Smiling Face
05. Living On An Island
06. Come Rock With Me
07. Rockin' On
08. Runaway
09. Breaking Away

" Just Supposin' "

10. What You're Proposing
11. Run To Mummy
12. Don't Drive My car
13. Lies
14. Over The Edge
15. Name of the game
16. Coming And Going
17. Rock 'N' Roll
Exact Audio Copy V0.99 prebeta 5 from 4. May 2009

Отчёт EAC об извлечении, выполненном 9. сентября 2012, 23:13

Status Quo / Whatever You Want + Just Supposin'

Дисковод: ASUS SDRW-08D2S-U Adapter: 2 ID: 0

Режим чтения : Достоверность
Использование точного потока : Да
Отключение кэша аудио : Да
Использование указателей C2 : Нет

Коррекция смещения при чтении : 103
Способность читать области Lead-in и Lead-out : Нет
Заполнение пропущенных сэмплов тишиной : Да
Удаление блоков с тишиной в начале и конце : Нет
При вычислениях CRC использовались нулевые сэмплы : Да
Интерфейс : Встроенный Win32-интерфейс для Win NT/2000

Выходной формат : Пользовательский кодировщик
Выбранный битрейт : 768 kBit/s
Качество : Высокий
Добавление ID3-тэга : Нет
Утилита сжатия : C:\Program Files\Exact Audio Copy\FLAC\FLAC.EXE
Дополнительные параметры : -8 -V %s

TOC извлечённого CD

Трек | Старт | Длительность | Начальный сектор | Конечный сектор
---------------------------------------------------------------------
1 | 0:00.32 | 4:04.23 | 32 | 18354
2 | 4:04.55 | 3:00.35 | 18355 | 31889
3 | 7:05.15 | 4:00.22 | 31890 | 49911
4 | 11:05.37 | 4:24.63 | 49912 | 69774
5 | 15:30.25 | 4:48.27 | 69775 | 91401
6 | 20:18.52 | 3:15.55 | 91402 | 106081
7 | 23:34.32 | 3:25.33 | 106082 | 121489
8 | 26:59.65 | 4:39.42 | 121490 | 142456
9 | 31:39.32 | 6:44.40 | 142457 | 172796
10 | 38:23.72 | 4:18.48 | 172797 | 192194
11 | 42:42.45 | 3:12.15 | 192195 | 206609
12 | 45:54.60 | 4:33.70 | 206610 | 227154
13 | 50:28.55 | 3:59.65 | 227155 | 245144
14 | 54:28.45 | 4:33.27 | 245145 | 265646
15 | 59:01.72 | 4:29.05 | 265647 | 285826
16 | 63:31.02 | 6:23.60 | 285827 | 314611
17 | 69:54.62 | 5:24.58 | 314612 | 338969

Характеристики диапазона извлечения и сообщения об ошибках

Выбранный диапазон

Имя файла D:\uTorrent.compl\Status Quo - 16 Studio Albums on CD ( 1970-1986 )\Whatever You Want, 1979 & Just Supposin', 1980 (1991 Original West Germany Press, Vertigo 848 087-2)\Status Quo - Whatever You Want + Just Supposin'.wav

Пиковый уровень 100.0 %
Качество диапазона 100.0 %
CRC теста E0B7D482
CRC копии E0B7D482
Копирование... OK

Ошибок не произошло

AccurateRip: сводка

Трек 1 точное извлечение (доверие 5) [D35FD017]
Трек 2 точное извлечение (доверие 5) [C34386FF]
Трек 3 точное извлечение (доверие 5) [499F68C2]
Трек 4 точное извлечение (доверие 5) [E6525940]
Трек 5 точное извлечение (доверие 5) [1865E42F]
Трек 6 точное извлечение (доверие 5) [2B6C472E]
Трек 7 точное извлечение (доверие 5) [28826E5F]
Трек 8 точное извлечение (доверие 5) [ECFE96BE]
Трек 9 точное извлечение (доверие 5) [F3A9F7AF]
Трек 10 точное извлечение (доверие 5) [AA20B47D]
Трек 11 точное извлечение (доверие 5) [A23F149B]
Трек 12 точное извлечение (доверие 5) [73D44547]
Трек 13 точное извлечение (доверие 5) [B085F411]
Трек 14 точное извлечение (доверие 4) [40A7199B]
Трек 15 точное извлечение (доверие 4) [D31389A4]
Трек 16 точное извлечение (доверие 5) [E3302AE2]
Трек 17 точное извлечение (доверие 5) [3499A716]

Все треки извлечены точно

Конец отчёта


01. Rockin' All Over The World
02. Down Down
03. Caroline
04. Paper Plane
05. Break The Rules
06. Again And Again
07. Mystery Song
08. Roll Over Lay Down
09. Rain
10. Wild Side Of Life
11. Whatever You Want
12. Living On An Island
Exact Audio Copy V0.99 prebeta 5 from 4. May 2009

Отчёт EAC об извлечении, выполненном 16. августа 2012, 12:23

Status Quo / 12 Gold Bars

Дисковод: ASUS SDRW-08D2S-U Adapter: 2 ID: 0

Режим чтения : Достоверность
Использование точного потока : Да
Отключение кэша аудио : Да
Использование указателей C2 : Нет

Коррекция смещения при чтении : 103
Способность читать области Lead-in и Lead-out : Нет
Заполнение пропущенных сэмплов тишиной : Да
Удаление блоков с тишиной в начале и конце : Нет
При вычислениях CRC использовались нулевые сэмплы : Да
Интерфейс : Встроенный Win32-интерфейс для Win NT/2000

Выходной формат : Пользовательский кодировщик
Выбранный битрейт : 768 kBit/s
Качество : Высокий
Добавление ID3-тэга : Нет
Утилита сжатия : C:\Program Files\Exact Audio Copy\FLAC\FLAC.EXE
Дополнительные параметры : -8 -V %s

TOC извлечённого CD

Трек | Старт | Длительность | Начальный сектор | Конечный сектор
---------------------------------------------------------------------
1 | 0:00.32 | 3:33.63 | 32 | 16069
2 | 3:34.20 | 3:50.25 | 16070 | 33344
3 | 7:24.45 | 3:43.57 | 33345 | 50126
4 | 11:08.27 | 2:56.25 | 50127 | 63351
5 | 14:04.52 | 3:39.43 | 63352 | 79819
6 | 17:44.20 | 3:41.37 | 79820 | 96431
7 | 21:25.57 | 3:58.53 | 96432 | 114334
8 | 25:24.35 | 5:42.60 | 114335 | 140044
9 | 31:07.20 | 4:34.15 | 140045 | 160609
10 | 35:41.35 | 3:16.15 | 160610 | 175324
11 | 38:57.50 | 4:02.00 | 175325 | 193474
12 | 42:59.50 | 3:47.32 | 193475 | 210531

Характеристики диапазона извлечения и сообщения об ошибках

Выбранный диапазон

Имя файла D:\uTorrent.compl\Status Quo - 16 Studio Albums on CD ( 1970-1986 )\12 Gold Bars ( Vertigo 800 062-2 )\Status Quo - 12 Gold Bars.wav

Пиковый уровень 100.0 %
Качество диапазона 100.0 %
CRC теста 106C3660
CRC копии 106C3660
Копирование... OK

Ошибок не произошло

AccurateRip: сводка

Трек 1 точное извлечение (доверие 23) [788AA166]
Трек 2 точное извлечение (доверие 25) [40393464]
Трек 3 точное извлечение (доверие 25) [B0D5C5DF]
Трек 4 точное извлечение (доверие 25) [021AE7BC]
Трек 5 точное извлечение (доверие 24) [69EF8493]
Трек 6 точное извлечение (доверие 24) [2CF3A183]
Трек 7 точное извлечение (доверие 24) [CECFD442]
Трек 8 точное извлечение (доверие 25) [14E0C0B8]
Трек 9 точное извлечение (доверие 24) [1E567B10]
Трек 10 точное извлечение (доверие 24) [50FFE777]
Трек 11 точное извлечение (доверие 23) [927EDA8A]
Трек 12 точное извлечение (доверие 25) [5A4F00AA]

Все треки извлечены точно

Конец отчёта
" Never Too Late "

01. Never Too Late
02. Something 'Bout You Baby I Like
03. Take Me Away
04. Falling In Falling Out
05. Carol
06. Long Ago
07. Mountain Lady
08. Don't Stop Me Now
09. Enough Is Enough
10. Riverside

" Back To Back "

11. A Mess Of Blues
12. Ol' Rag Blues
13. Can't Be Done
14. Too Close To The Ground
15. No Contract
16. Win Or Lose
17. Marguerita Time
18. Your Kind Of Love
19. Stay The Night
20. Going Down Town Tonight
Exact Audio Copy V0.99 prebeta 5 from 4. May 2009

Отчёт EAC об извлечении, выполненном 13. марта 2010, 19:02

Status Quo / Never Too Late & Back To Back

Дисковод: HL-DT-STDVDRAM GSA-T20N Adapter: 1 ID: 0

Режим чтения : Достоверность
Использование точного потока : Да
Отключение кэша аудио : Да
Использование указателей C2 : Нет

Коррекция смещения при чтении : 667
Способность читать области Lead-in и Lead-out : Нет
Заполнение пропущенных сэмплов тишиной : Да
Удаление блоков с тишиной в начале и конце : Нет
При вычислениях CRC использовались нулевые сэмплы : Да
Интерфейс : Встроенный Win32-интерфейс для Win NT/2000

Выходной формат : Пользовательский кодировщик
Выбранный битрейт : 768 kBit/s
Качество : Высокий
Добавление ID3-тэга : Нет
Утилита сжатия : C:\Program Files\Exact Audio Copy\FLAC\FLAC.EXE
Дополнительные параметры : -8 -V %s

TOC извлечённого CD

Трек | Старт | Длительность | Начальный сектор | Конечный сектор
---------------------------------------------------------------------
1 | 0:00.32 | 4:03.13 | 32 | 18269
2 | 4:03.45 | 2:57.05 | 18270 | 31549
3 | 7:00.50 | 4:51.20 | 31550 | 53394
4 | 11:51.70 | 4:13.50 | 53395 | 72419
5 | 16:05.45 | 3:41.65 | 72420 | 89059
6 | 19:47.35 | 3:47.07 | 89060 | 106091
7 | 23:34.42 | 5:08.38 | 106092 | 129229
8 | 28:43.05 | 3:41.62 | 129230 | 145866
9 | 32:24.67 | 2:54.30 | 145867 | 158946
10 | 35:19.22 | 5:13.10 | 158947 | 182431
11 | 40:32.32 | 3:23.03 | 182432 | 197659
12 | 43:55.35 | 2:51.35 | 197660 | 210519
13 | 46:46.70 | 3:07.15 | 210520 | 224559
14 | 49:54.10 | 3:43.72 | 224560 | 241356
15 | 53:38.07 | 3:40.23 | 241357 | 257879
16 | 57:18.30 | 2:35.57 | 257880 | 269561
17 | 59:54.12 | 3:27.40 | 269562 | 285126
18 | 63:21.52 | 3:24.63 | 285127 | 300489
19 | 66:46.40 | 3:02.67 | 300490 | 314206
20 | 69:49.32 | 3:38.25 | 314207 | 330581

Характеристики диапазона извлечения и сообщения об ошибках

Выбранный диапазон

Имя файла D:\uTorrent.compl\Status Quo -Studio Albums 1970-1986\Never Too Late & Back To Back (Vertigo 848 088-2\Status Quo - Never Too Late & Back To Back.wav

Пиковый уровень 100.0 %
Качество диапазона 100.0 %
CRC теста B321291B
CRC копии B321291B
Копирование... OK

Ошибок не произошло

AccurateRip: сводка

Трек 1 точное извлечение (доверие 3) [ADA8AE34]
Трек 2 точное извлечение (доверие 3) [033BC79F]
Трек 3 точное извлечение (доверие 3) [6AC0DEF3]
Трек 4 точное извлечение (доверие 3) [523C927B]
Трек 5 точное извлечение (доверие 3) [BC09D52E]
Трек 6 точное извлечение (доверие 3) [D5C2A60C]
Трек 7 точное извлечение (доверие 3) [36A60754]
Трек 8 точное извлечение (доверие 4) [3A63A4A3]
Трек 9 точное извлечение (доверие 4) [21CB0207]
Трек 10 точное извлечение (доверие 4) [87C19200]
Трек 11 точное извлечение (доверие 4) [C923E531]
Трек 12 точное извлечение (доверие 4) [D92E36F6]
Трек 13 точное извлечение (доверие 4) [66F2869D]
Трек 14 точное извлечение (доверие 4) [60334915]
Трек 15 точное извлечение (доверие 4) [CF2538DB]
Трек 16 точное извлечение (доверие 4) [AB6862E6]
Трек 17 точное извлечение (доверие 4) [2809F0AD]
Трек 18 точное извлечение (доверие 4) [42BCDB84]
Трек 19 точное извлечение (доверие 4) [FE2AAC9F]
Трек 20 точное извлечение (доверие 4) [23CF9B0B]

Все треки извлечены точно

Конец отчёта


01. Never too late
02. Something 'bout you baby I like
03. Take me away
04. Falling in falling out
05. Carol
06. Long ago
07. Mountain lady
08. Don't stop me now
09. Enough is enough
10. Riverside
Exact Audio Copy V0.99 prebeta 5 from 4. May 2009

Отчёт EAC об извлечении, выполненном 9. сентября 2012, 21:45

Status Quo / Never too late / Never too late

Дисковод: HL-DT-STDVDRAM GSA-T20N Adapter: 1 ID: 0

Режим чтения : Достоверность
Использование точного потока : Да
Отключение кэша аудио : Да
Использование указателей C2 : Нет

Коррекция смещения при чтении : 667
Способность читать области Lead-in и Lead-out : Нет
Заполнение пропущенных сэмплов тишиной : Да
Удаление блоков с тишиной в начале и конце : Нет
При вычислениях CRC использовались нулевые сэмплы : Да
Интерфейс : Встроенный Win32-интерфейс для Win NT/2000

Выходной формат : Пользовательский кодировщик
Выбранный битрейт : 768 kBit/s
Качество : Высокий
Добавление ID3-тэга : Нет
Утилита сжатия : C:\Program Files\Exact Audio Copy\FLAC\FLAC.EXE
Дополнительные параметры : -8 -V %s

TOC извлечённого CD

Трек | Старт | Длительность | Начальный сектор | Конечный сектор
---------------------------------------------------------------------
1 | 0:00.32 | 3:59.40 | 32 | 17996
2 | 3:59.72 | 2:52.00 | 17997 | 30896
3 | 6:51.72 | 4:49.23 | 30897 | 52594
4 | 11:41.20 | 4:15.35 | 52595 | 71754
5 | 15:56.55 | 3:41.47 | 71755 | 88376
6 | 19:38.27 | 3:46.08 | 88377 | 105334
7 | 23:24.35 | 5:02.27 | 105335 | 128011
8 | 28:26.62 | 3:43.58 | 128012 | 144794
9 | 32:10.45 | 2:54.07 | 144795 | 157851
10 | 35:04.52 | 5:04.30 | 157852 | 180681

Характеристики диапазона извлечения и сообщения об ошибках

Выбранный диапазон

Имя файла D:\uTorrent.compl\Status Quo - 16 Studio Albums on CD ( 1970-1986 )\Never Too Late, 1981 ( 1983 Original West Germany Press, Vertigo 800 053-2 )\Status Quo - Never too late Never too late.wav

Пиковый уровень 100.0 %
Качество диапазона 100.0 %
CRC теста 916AE2A7
CRC копии 916AE2A7
Копирование... OK

Ошибок не произошло

AccurateRip: сводка

Трек 1 точность не определена (достоверность 1) [1F0787D8], AccurateRip вернул [2847ACC5]
Трек 2 точность не определена (достоверность 1) [9ABCB822], AccurateRip вернул [A2367448]
Трек 3 точность не определена (достоверность 1) [4B20CE10], AccurateRip вернул [1EAC80F8]
Трек 4 точность не определена (достоверность 1) [7FB7FEF4], AccurateRip вернул [25CD5D2D]
Трек 5 точность не определена (достоверность 1) [ECD4D4A5], AccurateRip вернул [B87CEE61]
Трек 6 точность не определена (достоверность 1) [FE5BDD91], AccurateRip вернул [6B8EF865]
Трек 7 точность не определена (достоверность 1) [B68C479F], AccurateRip вернул [116EE175]
Трек 8 точность не определена (достоверность 1) [888DEB45], AccurateRip вернул [B90E5B47]
Трек 9 точность не определена (достоверность 1) [91EA2804], AccurateRip вернул [B01A99F5]
Трек 10 точность не определена (достоверность 1) [36ADB87A], AccurateRip вернул [2DEC0F0D]

Ни один трек не прошёл проверки на точность
В вашей базе может быть иной вариант штамповки диска

Конец отчёта


01. She Don't Fool Me
02. Young Pretender
03. Get Out And Walk
04. Jealousy
05. I Love rock And Roll
06. Resurrection
07. Dear John
08. Doesn't Matter
09. I Want The World To Know
10. I Should Have Known
11. Big Man
Exact Audio Copy V0.99 prebeta 5 from 4. May 2009

Отчёт EAC об извлечении, выполненном 13. марта 2010, 17:53

Status Quo - 1982 / 1982

Дисковод: HL-DT-STDVDRAM GSA-T20N Adapter: 1 ID: 0

Режим чтения : Достоверность
Использование точного потока : Да
Отключение кэша аудио : Да
Использование указателей C2 : Нет

Коррекция смещения при чтении : 667
Способность читать области Lead-in и Lead-out : Нет
Заполнение пропущенных сэмплов тишиной : Да
Удаление блоков с тишиной в начале и конце : Нет
При вычислениях CRC использовались нулевые сэмплы : Да
Интерфейс : Встроенный Win32-интерфейс для Win NT/2000

Выходной формат : Пользовательский кодировщик
Выбранный битрейт : 768 kBit/s
Качество : Высокий
Добавление ID3-тэга : Нет
Утилита сжатия : C:\Program Files\Exact Audio Copy\FLAC\FLAC.EXE
Дополнительные параметры : -8 -V %s

TOC извлечённого CD

Трек | Старт | Длительность | Начальный сектор | Конечный сектор
---------------------------------------------------------------------
1 | 0:00.32 | 4:32.48 | 32 | 20479
2 | 4:33.05 | 3:34.15 | 20480 | 36544
3 | 8:07.20 | 3:10.50 | 36545 | 50844
4 | 11:17.70 | 2:54.00 | 50845 | 63894
5 | 14:11.70 | 2:48.50 | 63895 | 76544
6 | 17:00.45 | 3:46.47 | 76545 | 93541
7 | 20:47.17 | 3:12.33 | 93542 | 107974
8 | 23:59.50 | 3:37.37 | 107975 | 124286
9 | 27:37.12 | 3:21.68 | 124287 | 139429
10 | 30:59.05 | 3:30.05 | 139430 | 155184
11 | 34:29.10 | 3:40.22 | 155185 | 171706

Характеристики диапазона извлечения и сообщения об ошибках

Выбранный диапазон

Имя файла D:\uTorrent.compl\Status Quo -Studio Albums 1970-1986\1+9+8+2 (Vertigo 800 035-2)\Status Quo - 1982 - 1982.wav

Пиковый уровень 100.0 %
Качество диапазона 100.0 %
CRC теста 5A27A12B
CRC копии 5A27A12B
Копирование... OK

Ошибок не произошло

AccurateRip: сводка

Трек 1 точное извлечение (доверие 1) [3F520425]
Трек 2 точное извлечение (доверие 1) [F17ED123]
Трек 3 точное извлечение (доверие 1) [74444631]
Трек 4 точное извлечение (доверие 1) [7C02E358]
Трек 5 точное извлечение (доверие 1) [CCE5B3B9]
Трек 6 точное извлечение (доверие 1) [AC619073]
Трек 7 точное извлечение (доверие 1) [8463BF86]
Трек 8 точное извлечение (доверие 1) [82224FD8]
Трек 9 точное извлечение (доверие 1) [D47DA734]
Трек 10 точное извлечение (доверие 1) [6309E44E]
Трек 11 точное извлечение (доверие 1) [45800C18]

Все треки извлечены точно

Конец отчёта


01.A Mess Of Blues
02.Ol' Rag Blues
03.Can't Be Done
04.Too Close To The Ground
05.No Contract
06.Win Or Lose
07.Marguerita Time
08.Your Kind Of Love
09.Stay The Night
10.Going Down Town Tonight
Exact Audio Copy V0.99 prebeta 5 from 4. May 2009

Отчёт EAC об извлечении, выполненном 16. августа 2012, 19:47

Status Quo / Back To Back

Дисковод: ASUS SDRW-08D2S-U Adapter: 2 ID: 0

Режим чтения : Достоверность
Использование точного потока : Да
Отключение кэша аудио : Да
Использование указателей C2 : Нет

Коррекция смещения при чтении : 103
Способность читать области Lead-in и Lead-out : Нет
Заполнение пропущенных сэмплов тишиной : Да
Удаление блоков с тишиной в начале и конце : Нет
При вычислениях CRC использовались нулевые сэмплы : Да
Интерфейс : Встроенный Win32-интерфейс для Win NT/2000

Выходной формат : Пользовательский кодировщик
Выбранный битрейт : 768 kBit/s
Качество : Высокий
Добавление ID3-тэга : Нет
Утилита сжатия : C:\Program Files\Exact Audio Copy\FLAC\FLAC.EXE
Дополнительные параметры : -8 -V %s

TOC извлечённого CD

Трек | Старт | Длительность | Начальный сектор | Конечный сектор
---------------------------------------------------------------------
1 | 0:00.33 | 3:24.00 | 33 | 15332
2 | 3:24.33 | 2:51.30 | 15333 | 28187
3 | 6:15.63 | 3:07.20 | 28188 | 42232
4 | 9:23.08 | 3:43.65 | 42233 | 59022
5 | 13:06.73 | 3:40.27 | 59023 | 75549
6 | 16:47.25 | 2:35.60 | 75550 | 87234
7 | 19:23.10 | 3:27.35 | 87235 | 102794
8 | 22:50.45 | 3:24.63 | 102795 | 118157
9 | 26:15.33 | 3:02.62 | 118158 | 131869
10 | 29:18.20 | 3:38.15 | 131870 | 148234

Характеристики диапазона извлечения и сообщения об ошибках

Выбранный диапазон

Имя файла D:\uTorrent.compl\Status Quo - 16 Studio Albums on CD ( 1970-1986 )\Back To Back, 1983 (1983 Original West Germany Press, Vertigo 814 662-2 )\Status Quo - Back To Back.wav

Пиковый уровень 98.9 %
Качество диапазона 99.9 %
CRC теста 3C608264
CRC копии 3C608264
Копирование... OK

Ошибок не произошло

AccurateRip: сводка

Трек 1 нет в базе данных
Трек 2 нет в базе данных
Трек 3 нет в базе данных
Трек 4 нет в базе данных
Трек 5 нет в базе данных
Трек 6 нет в базе данных
Трек 7 нет в базе данных
Трек 8 нет в базе данных
Трек 9 нет в базе данных
Трек 10 нет в базе данных

Ни одного трека нет в базе AccurateRip

Конец отчёта


01. Rollin' Home
02. Calling
03. In Your Eyes
04. Save Me
05. In The Army Now
06. Dreamin'
07. End Of The Line
08. Invitation
09. Red Sky
10. Speechless
11. Overdose
Exact Audio Copy V0.99 prebeta 5 from 4. May 2009

Отчёт EAC об извлечении, выполненном 16. августа 2012, 10:39

Status Quo / In The Army Now

Дисковод: ASUS SDRW-08D2S-U Adapter: 2 ID: 0

Режим чтения : Достоверность
Использование точного потока : Да
Отключение кэша аудио : Да
Использование указателей C2 : Нет

Коррекция смещения при чтении : 103
Способность читать области Lead-in и Lead-out : Нет
Заполнение пропущенных сэмплов тишиной : Да
Удаление блоков с тишиной в начале и конце : Нет
При вычислениях CRC использовались нулевые сэмплы : Да
Интерфейс : Встроенный Win32-интерфейс для Win NT/2000

Выходной формат : Пользовательский кодировщик
Выбранный битрейт : 768 kBit/s
Качество : Высокий
Добавление ID3-тэга : Нет
Утилита сжатия : C:\Program Files\Exact Audio Copy\FLAC\FLAC.EXE
Дополнительные параметры : -8 -V %s

TOC извлечённого CD

Трек | Старт | Длительность | Начальный сектор | Конечный сектор
---------------------------------------------------------------------
1 | 0:00.33 | 4:25.40 | 33 | 19947
2 | 4:25.73 | 4:04.12 | 19948 | 38259
3 | 8:30.10 | 5:07.73 | 38260 | 61357
4 | 13:38.08 | 4:24.65 | 61358 | 81222
5 | 18:02.73 | 4:41.07 | 81223 | 102304
6 | 22:44.05 | 2:54.70 | 102305 | 115424
7 | 25:39.00 | 4:58.60 | 115425 | 137834
8 | 30:37.60 | 3:15.70 | 137835 | 152529
9 | 33:53.55 | 4:14.15 | 152530 | 171594
10 | 38:07.70 | 3:40.60 | 171595 | 188154
11 | 41:48.55 | 5:24.53 | 188155 | 212507

Характеристики диапазона извлечения и сообщения об ошибках

Выбранный диапазон

Имя файла D:\uTorrent.compl\Status Quo - 16 Studio Albums on CD ( 1970-1986 )\In The Army Now (Vertigo 830 049-2)\Status Quo - In The Army Now.wav

Пиковый уровень 100.0 %
Качество диапазона 100.0 %
CRC теста E07688A0
CRC копии E07688A0
Копирование... OK

Ошибок не произошло

AccurateRip: сводка

Трек 1 точное извлечение (доверие 40) [444CF0C1]
Трек 2 точное извлечение (доверие 40) [4B588E7A]
Трек 3 точное извлечение (доверие 41) [48D10A6A]
Трек 4 точное извлечение (доверие 41) [44F96357]
Трек 5 точное извлечение (доверие 41) [CCF10705]
Трек 6 точное извлечение (доверие 40) [0A2C09E0]
Трек 7 точное извлечение (доверие 41) [D52ED19B]
Трек 8 точное извлечение (доверие 39) [C8B8306A]
Трек 9 точное извлечение (доверие 39) [4ED31FE9]
Трек 10 точное извлечение (доверие 40) [E9265934]
Трек 11 точное извлечение (доверие 39) [D466BA52]

Все треки извлечены точно

Конец отчёта


Трекер:  [ 14-Окт-2012 11:15 ]

  

Скачать .torrent

Размер .torrent файла 49 KB


Размер: 5.6 GB
Хэш (hash) релиза: ccdfe8ab9323e82d4c8d93f528a1b2dc36de6439

Торренты, похожие на Status Quo - Albums on CD 1970- 1986 скачать торрент

Форум Название Автор Размер S L Добавлен
Rосk | Mеtаl | Аltеrnаtivе, Рunk, Indереndеnt (losslеss) ·· (Hard Rock) Status Quo - 16 Studio Albums on CD ( 1970-1986 ) - FLAC (image+.cue), lossless Galfimbul 53892289525.02 GB 0 0 1297876181

20:09

16-Фев-11

Еще никто не оставлял запись к записи скачать торрент Status Quo - Albums on CD 1970- 1986 . Будь первым!

!Обратная связь