Скачать через торрент музыку Beth Hart - Дискография бесплатно без регистрации torrent

Если у вас наблюдаются проблемы со скриншотами, переходом по ссылками, скачиванием торрентов - проблемы в блокировщике рекламы AdBlock. #хорошегоДня!


Статистика раздачи
Размер:  5.57 GB   |    Зарегистрирован:  5 лет   |    .torrent скачан:  33 раза   |   
Раздают:  1  
   
Загрузка...
 
Автор Сообщение

Galfimbul

avatar Galfimbul


Дискография

6 Studio Albums, 1 Live Albums, 3 Collaboration albums
Всего - 10 Albums, 11 CD

Жанр: Rock, Blues Rock, Jazz Fusion, Soul
Год издания диска: 1996-2011
Страна: USA
Аудиокодек: FLAC (*.flac)
Тип рипа: image+.cue
Битрейт аудио: lossless
Продолжительность: 10:13:57
Источник (релизер): Собственный
Наличие сканов в содержимом раздачи: да (PNG, 1.68Gb, 300-600dpi)
Выражаю огромную благодарность BolshoeR за помощь в сборе материала.
Amazon | Wikipedia | <a href="https://www.facebook.com/officialbethhart" class="postLink">Facebook</a> | Official page
Studio Albums

Amazon | Discogs
01. Run - 4:08
02. Spiders In My Bed - 4:44
03. Isolation - 5:18
04. Hold Me Through The Night - 4:08
05. State Of Mind - 2:51
06. Burn Chile - 4:11
07. Immortal - 4:23
08. Summer Is Gone - 4:44
09. Ringing - 3:06
10. God Bless You - 3:10
11. Am I The One - 6:39
12. Blame The Moon - 2:43
Exact Audio Copy V1.0 beta 1 from 15. November 2010

EAC extraction logfile from 12. September 2012, 21:43

Beth Hart Band / Immortal (92654-2)

Used drive : Optiarc DVD RW AD-5200S Adapter: 2 ID: 0

Read mode : SecureUtilize accurate stream : YesDefeat audio cache : YesMake use of C2 pointers : No

Read offset correction : 48Overread into Lead-In and Lead-Out : NoFill up missing offset samples with silence : YesDelete leading and trailing silent blocks : NoNull samples used in CRC calculations : YesUsed interface : Native Win32 interface for Win NT & 2000

Used output format : User Defined EncoderSelected bitrate : 1024 kBit/sQuality : HighAdd ID3 tag : NoCommand line compressor : C:\Program Files (x86)\Exact Audio Copy\FLAC\FLAC.EXEAdditional command line options : -8 -V %s

TOC of the extracted CD

Track | Start | Length | Start sector | End sector --------------------------------------------------------- 1 | 0:00.00 | 4:08.10 | 0 | 18609 2 | 4:08.10 | 4:44.27 | 18610 | 39936 3 | 8:52.37 | 5:17.38 | 39937 | 63749 4 | 14:10.00 | 4:08.15 | 63750 | 82364 5 | 18:18.15 | 2:51.05 | 82365 | 95194 6 | 21:09.20 | 4:10.72 | 95195 | 114016 7 | 25:20.17 | 4:23.00 | 114017 | 133741 8 | 29:43.17 | 4:44.13 | 133742 | 155054 9 | 34:27.30 | 3:06.20 | 155055 | 169024 10 | 37:33.50 | 3:10.30 | 169025 | 183304 11 | 40:44.05 | 6:39.36 | 183305 | 213265 12 | 47:23.41 | 2:43.01 | 213266 | 225491

Range status and errors

Selected range

Filename G:\Download\Музыка LossLess\Beth Hart\1996 - Beth Hart Band - Immortal (92654-2)\Beth Hart Band - Immortal (92654-2).wav

Peak level 100.0 % Extraction speed 0.2 X Range quality 100.0 % Test CRC 09C1FEF5 Copy CRC 09C1FEF5 Copy OK

No errors occurred

AccurateRip summary

Track 1 cannot be verified as accurate (confidence 1) [16D83021], AccurateRip returned [6E8AD13F]Track 2 cannot be verified as accurate (confidence 1) [3B1DF3A7], AccurateRip returned [A2FAEFF4]Track 3 cannot be verified as accurate (confidence 1) [AF23AC82], AccurateRip returned [85C32A69]Track 4 cannot be verified as accurate (confidence 1) [7E5220B4], AccurateRip returned [6C87C684]Track 5 cannot be verified as accurate (confidence 1) [BE7B7245], AccurateRip returned [A8F46F5D]Track 6 cannot be verified as accurate (confidence 1) [6254DBE6], AccurateRip returned [61D36CC6]Track 7 cannot be verified as accurate (confidence 1) [979A417A], AccurateRip returned [75813F8A]Track 8 cannot be verified as accurate (confidence 1) [6C4FF726], AccurateRip returned [E8E43D0E]Track 9 cannot be verified as accurate (confidence 1) [6018B23E], AccurateRip returned [AAADFB5E]Track 10 cannot be verified as accurate (confidence 1) [809F83DF], AccurateRip returned [0DE127E7]Track 11 cannot be verified as accurate (confidence 1) [37498B44], AccurateRip returned [D25AA31C]Track 12 cannot be verified as accurate (confidence 1) [59B27A01], AccurateRip returned [C6146901]

No tracks could be verified as accurateYou may have a different pressing from the one(s) in the database

End of status report

Amazon | Discogs
01. Just A Little Hole - 5:16
02. Delicious Surprise - 3:48
03. L. A. Song (Out Of This Town) - 3:56
04. Is That Too Much To Ask - 3:32
05. By Her - 4:09
06. Get Your Sh-t Together - 4:42
07. Stay - 4:49
08. G. O. P. - 4:01
09. Skin - 5:01
10. Girls Say - 3:45
11. Sky Is Falling - 4:35
12. Mama - 4:28
13. Favorite Things - 9:02
Exact Audio Copy V1.0 beta 1 from 15. November 2010

EAC extraction logfile from 17. September 2012, 21:16

Beth Hart / Screamin' For My Supper (7567-83192-2)

Used drive : Optiarc DVD RW AD-5200S Adapter: 2 ID: 0

Read mode : SecureUtilize accurate stream : YesDefeat audio cache : YesMake use of C2 pointers : No

Read offset correction : 48Overread into Lead-In and Lead-Out : NoFill up missing offset samples with silence : YesDelete leading and trailing silent blocks : NoNull samples used in CRC calculations : YesUsed interface : Native Win32 interface for Win NT & 2000

Used output format : User Defined EncoderSelected bitrate : 1024 kBit/sQuality : HighAdd ID3 tag : NoCommand line compressor : C:\Program Files (x86)\Exact Audio Copy\FLAC\FLAC.EXEAdditional command line options : -8 -V %s

TOC of the extracted CD

Track | Start | Length | Start sector | End sector --------------------------------------------------------- 1 | 0:00.00 | 5:16.32 | 0 | 23731 2 | 5:16.32 | 3:48.05 | 23732 | 40836 3 | 9:04.37 | 3:55.48 | 40837 | 58509 4 | 13:00.10 | 3:32.30 | 58510 | 74439 5 | 16:32.40 | 4:08.52 | 74440 | 93091 6 | 20:41.17 | 4:42.13 | 93092 | 114254 7 | 25:23.30 | 4:49.10 | 114255 | 135939 8 | 30:12.40 | 4:00.72 | 135940 | 154011 9 | 34:13.37 | 5:00.60 | 154012 | 176571 10 | 39:14.22 | 3:44.43 | 176572 | 193414 11 | 42:58.65 | 4:34.47 | 193415 | 214011 12 | 47:33.37 | 4:27.65 | 214012 | 234101 13 | 52:01.27 | 9:02.05 | 234102 | 274756

Range status and errors

Selected range

Filename G:\Download\Музыка LossLess\Beth Hart\1999 - Beth Hart - Screamin' For My Supper (7567-83192-2)\Beth Hart - Screamin' For My Supper.wav

Peak level 98.8 % Extraction speed 0.6 X Range quality 100.0 % Test CRC 284A59F9 Copy CRC 284A59F9 Copy OK

No errors occurred

AccurateRip summary

Track 1 accurately ripped (confidence 3) [1FB1D5EE]Track 2 accurately ripped (confidence 3) [A4A15CC8]Track 3 accurately ripped (confidence 3) [65565B45]Track 4 accurately ripped (confidence 3) [A14DBAAC]Track 5 accurately ripped (confidence 3) [6D4CC331]Track 6 accurately ripped (confidence 3) [8BB134A7]Track 7 accurately ripped (confidence 3) [E976EBE3]Track 8 accurately ripped (confidence 3) [D9813281]Track 9 accurately ripped (confidence 3) [F05E9392]Track 10 accurately ripped (confidence 3) [7B203CC6]Track 11 accurately ripped (confidence 3) [9538AD13]Track 12 accurately ripped (confidence 3) [23783375]Track 13 accurately ripped (confidence 2) [F4C9CCF4]

All tracks accurately ripped

End of status report

Amazon | Discogs
CD 1 - 01:01:38
01. Hiding under water - 4:27
02. Say something - 3:12
03. Crazy kind of day - 4:08
04. I don't want to be - 3:57
05. Learning to live - 4:13
06. Lifts you up - 3:39
07. Leave the light on - 4:03
08. Bottle of jesus - 3:14
09. World without you - 4:09
10. Lay your hands on me - 4:12
11. Broken & ugly - 3:24
12. Lifetime - 4:10
13. If god only knew - 3:46
14. Monkey back - 3:19
15. Sky full of clover - 4:03
16. I'll stay with you - 3:41

CD 2 – Bonus Disc (Live Recording Paradiso) - 00:23:25
01. Hiding under water - 4:37
02. Broken & ugly - 4:39
03. Leave the light on - 4:32
04. Get your shit toghether - 5:42
05. L.A. Song - 3:55
Exact Audio Copy V1.0 beta 3 from 29. August 2011

EAC extraction logfile from 27. September 2012, 0:20

Beth Hart / Leave the light on (Special Edition) CD1

Used drive : Optiarc DVD RW AD-5200S Adapter: 2 ID: 0

Read mode : SecureUtilize accurate stream : YesDefeat audio cache : YesMake use of C2 pointers : No

Read offset correction : 48Overread into Lead-In and Lead-Out : NoFill up missing offset samples with silence : YesDelete leading and trailing silent blocks : NoNull samples used in CRC calculations : YesUsed interface : Native Win32 interface for Win NT & 2000

Used output format : User Defined EncoderSelected bitrate : 1024 kBit/sQuality : HighAdd ID3 tag : NoCommand line compressor : C:\Program Files (x86)\Exact Audio Copy\FLAC\FLAC.EXEAdditional command line options : -8 -V -T "ARTIST=%artist%" -T "TITLE=%title%" -T "ALBUM=%albumtitle%" -T "DATE=%year%" -T "TRACKNUMBER=%tracknr%" -T "GENRE=%genre%" -T "PERFORMER=%albuminterpret%" -T "COMPOSER=%composer%" %haslyrics%--tag-from-file=LYRICS="%lyricsfile%"%haslyrics% -T "ALBUMARTIST=%albumartist%" -T "DISCNUMBER=%cdnumber%" -T "TOTALDISCS=%totalcds%" -T "TOTALTRACKS=%numtracks%" -T "COMMENT=%comment%" %source% -o %dest%

TOC of the extracted CD

Track | Start | Length | Start sector | End sector --------------------------------------------------------- 1 | 0:00.00 | 4:27.15 | 0 | 20039 2 | 4:27.15 | 3:12.10 | 20040 | 34449 3 | 7:39.25 | 4:08.18 | 34450 | 53067 4 | 11:47.43 | 3:56.67 | 53068 | 70834 5 | 15:44.35 | 4:12.70 | 70835 | 89804 6 | 19:57.30 | 3:38.43 | 89805 | 106197 7 | 23:35.73 | 4:02.62 | 106198 | 124409 8 | 27:38.60 | 3:14.15 | 124410 | 138974 9 | 30:53.00 | 4:08.54 | 138975 | 157628 10 | 35:01.54 | 4:12.34 | 157629 | 176562 11 | 39:14.13 | 3:23.65 | 176563 | 191852 12 | 42:38.03 | 4:10.37 | 191853 | 210639 13 | 46:48.40 | 3:45.55 | 210640 | 227569 14 | 50:34.20 | 3:19.18 | 227570 | 242512 15 | 53:53.38 | 4:03.12 | 242513 | 260749 16 | 57:56.50 | 3:41.33 | 260750 | 277357

Range status and errors

Selected range

Filename G:\CD1 - Leave The Light On\Beth Hart - Leave the light on (Special Edition) CD1.wav

Peak level 100.0 % Extraction speed 4.1 X Range quality 100.0 % Test CRC 23F8961A Copy CRC 23F8961A Copy OK

No errors occurred

AccurateRip summary

Track 1 accurately ripped (confidence 2) [22FCE33C] (AR v2)Track 2 accurately ripped (confidence 2) [A8AE3969] (AR v2)Track 3 accurately ripped (confidence 2) [42F95FA7] (AR v2)Track 4 accurately ripped (confidence 2) [741C87BF] (AR v2)Track 5 accurately ripped (confidence 2) [6B2FC7DA] (AR v2)Track 6 accurately ripped (confidence 2) [3D8D9C38] (AR v2)Track 7 accurately ripped (confidence 2) [37DEC4BC] (AR v2)Track 8 accurately ripped (confidence 2) [670AAEB9] (AR v2)Track 9 accurately ripped (confidence 2) [0AB6B643] (AR v2)Track 10 accurately ripped (confidence 2) [1F65CE25] (AR v2)Track 11 accurately ripped (confidence 2) [06485CCC] (AR v2)Track 12 accurately ripped (confidence 2) [DCCBF1BC] (AR v2)Track 13 accurately ripped (confidence 2) [7BF5BF1D] (AR v2)Track 14 accurately ripped (confidence 2) [C799D0D0] (AR v2)Track 15 accurately ripped (confidence 2) [5DF0965A] (AR v2)Track 16 accurately ripped (confidence 2) [D904286C] (AR v2)

All tracks accurately ripped

End of status report

==== Log checksum 5121B4A809FB556203321CDF5DD3C662FAC6E15E0DB64C4B8000E91921E88435 ====
Exact Audio Copy V1.0 beta 3 from 29. August 2011

EAC extraction logfile from 26. September 2012, 22:32

Beth Hart / Leave the light on (Special Edition) CD2-Live Bonus Disc

Used drive : Optiarc DVD RW AD-5200S Adapter: 2 ID: 0

Read mode : SecureUtilize accurate stream : YesDefeat audio cache : YesMake use of C2 pointers : No

Read offset correction : 48Overread into Lead-In and Lead-Out : NoFill up missing offset samples with silence : YesDelete leading and trailing silent blocks : NoNull samples used in CRC calculations : YesUsed interface : Native Win32 interface for Win NT & 2000

Used output format : User Defined EncoderSelected bitrate : 1024 kBit/sQuality : HighAdd ID3 tag : NoCommand line compressor : C:\Program Files (x86)\Exact Audio Copy\FLAC\FLAC.EXEAdditional command line options : -8 -V -T "ARTIST=%artist%" -T "TITLE=%title%" -T "ALBUM=%albumtitle%" -T "DATE=%year%" -T "TRACKNUMBER=%tracknr%" -T "GENRE=%genre%" -T "PERFORMER=%albuminterpret%" -T "COMPOSER=%composer%" %haslyrics%--tag-from-file=LYRICS="%lyricsfile%"%haslyrics% -T "ALBUMARTIST=%albumartist%" -T "DISCNUMBER=%cdnumber%" -T "TOTALDISCS=%totalcds%" -T "TOTALTRACKS=%numtracks%" -T "COMMENT=%comment%" %source% -o %dest%

TOC of the extracted CD

Track | Start | Length | Start sector | End sector --------------------------------------------------------- 1 | 0:00.00 | 4:36.65 | 0 | 20764 2 | 4:36.65 | 4:38.70 | 20765 | 41684 3 | 9:15.60 | 4:31.73 | 41685 | 62082 4 | 13:47.58 | 5:42.20 | 62083 | 87752 5 | 19:30.03 | 3:55.22 | 87753 | 105399

Range status and errors

Selected range

Filename G:\Download\Музыка LossLess\Beth Hart\2003 - Beth Hart - Leave The Light On (2005, 2CD Special Edition, 987 054-6)\CD2 - Live Bonus Tracks\Beth Hart - Leave the light on (Special Edition) CD2-Live Bonus Disc.wav

Peak level 100.0 % Extraction speed 3.2 X Range quality 99.9 % Test CRC EE45A980 Copy CRC EE45A980 Copy OK

No errors occurred

AccurateRip summary

Track 1 not present in databaseTrack 2 not present in databaseTrack 3 not present in databaseTrack 4 not present in databaseTrack 5 not present in database

None of the tracks are present in the AccurateRip database

End of status report

==== Log checksum C6966F2213BE9154376BBA944F20C43D0EF3D6AAF87BCC44703C0EFD637107C7 ====

Amazon | Discogs
01. Good As It Gets - 3:57
02. Jealousy - 4:28
03. Beautiful Child - 3:57
04. One Eyed Chicken - 4:53
05. Sick - 4:38
06. Face Forward - 2:45
07. Soul Shine - 4:32
08. Forever Young - 4:11
09. Easy - 6:04
10. Heaven Look Down - 3:21
11. Missing You - 4:32
12. Waterfalls - 3:53
13. Crashing Down - 6:19
14. At The Bottom - 4:55Bonus Track:
15. L.A. Song - 4:10
16. Learning To Live - 4:16
17. Leave The Light On - 4:04
Exact Audio Copy V1.0 beta 1 from 15. November 2010

EAC extraction logfile from 17. September 2012, 22:06

Beth Hart / 37 Days (2011, CD+DVD, 9100659)

Used drive : Optiarc DVD RW AD-5200S Adapter: 2 ID: 0

Read mode : SecureUtilize accurate stream : YesDefeat audio cache : YesMake use of C2 pointers : No

Read offset correction : 48Overread into Lead-In and Lead-Out : NoFill up missing offset samples with silence : YesDelete leading and trailing silent blocks : NoNull samples used in CRC calculations : YesUsed interface : Native Win32 interface for Win NT & 2000

Used output format : User Defined EncoderSelected bitrate : 1024 kBit/sQuality : HighAdd ID3 tag : NoCommand line compressor : C:\Program Files (x86)\Exact Audio Copy\FLAC\FLAC.EXEAdditional command line options : -8 -V %s

TOC of the extracted CD

Track | Start | Length | Start sector | End sector --------------------------------------------------------- 1 | 0:00.00 | 3:57.25 | 0 | 17799 2 | 3:57.25 | 4:28.37 | 17800 | 37936 3 | 8:25.62 | 3:57.18 | 37937 | 55729 4 | 12:23.05 | 4:53.28 | 55730 | 77732 5 | 17:16.33 | 4:37.68 | 77733 | 98575 6 | 21:54.26 | 2:45.07 | 98576 | 110957 7 | 24:39.33 | 4:31.58 | 110958 | 131340 8 | 29:11.16 | 4:10.45 | 131341 | 150135 9 | 33:21.61 | 6:04.23 | 150136 | 177458 10 | 39:26.09 | 3:20.54 | 177459 | 192512 11 | 42:46.63 | 4:31.52 | 192513 | 212889 12 | 47:18.40 | 3:53.09 | 212890 | 230373 13 | 51:11.49 | 6:18.74 | 230374 | 258797 14 | 57:30.48 | 4:55.29 | 258798 | 280951 15 | 62:26.02 | 4:09.59 | 280952 | 299685 16 | 66:35.61 | 4:16.16 | 299686 | 318901 17 | 70:52.02 | 4:04.26 | 318902 | 337227

Range status and errors

Selected range

Filename G:\Download\Музыка LossLess\Beth Hart\2007 - Beth Hart - 37 Days (2011, CD+DVD, 9100659)\CD\Beth Hart - 37 Days (2011, CD+DVD, 9100659).wav

Peak level 100.0 % Extraction speed 0.2 X Range quality 100.0 % Test CRC 0D21E92F Copy CRC 0D21E92F Copy OK

No errors occurred

AccurateRip summary

Track 1 accurately ripped (confidence 3) [A0C5A031]Track 2 accurately ripped (confidence 3) [F2ECC246]Track 3 accurately ripped (confidence 3) [371827A0]Track 4 accurately ripped (confidence 3) [CE0137BE]Track 5 accurately ripped (confidence 3) [4EAAD8EF]Track 6 accurately ripped (confidence 3) [E197217E]Track 7 accurately ripped (confidence 3) [8BF93951]Track 8 accurately ripped (confidence 3) [A1C25234]Track 9 accurately ripped (confidence 3) [C289E759]Track 10 accurately ripped (confidence 3) [99B588CE]Track 11 accurately ripped (confidence 3) [24C9FB12]Track 12 accurately ripped (confidence 3) [147CB17E]Track 13 accurately ripped (confidence 3) [47210BF2]Track 14 accurately ripped (confidence 3) [5E412170]Track 15 accurately ripped (confidence 3) [994DB73B]Track 16 accurately ripped (confidence 3) [FECEB0B1]Track 17 accurately ripped (confidence 3) [C9174607]

All tracks accurately ripped

End of status report

Amazon | Discogs
01. Halfway to Heaven - 2:57
02. Just Call Me Up - 3:18
03. Can't Hear the Word - 4:34
04. Get Over It - 4:22
05. Love Suffers All - 3:49
06. I Felt Him Cry - 4:15
07. Lucy in the Sky With Diamonds - 3:39
08. Am I the One - 4:00
09. It's Too Late - 3:38
10. Show Me the Way - 4:50
11. Love Thing - 3:50
12. On With the Show - 4:11
13. Keep On Goin' - 4:39
Exact Audio Copy V1.0 beta 3 from 29. August 2011

EAC extraction logfile from 9. October 2012, 10:16

Beth Hart & The Ocean of Souls / Beth Hart (1993 Original Recording)

Used drive : Optiarc DVD RW AD-5200S Adapter: 2 ID: 0

Read mode : SecureUtilize accurate stream : YesDefeat audio cache : YesMake use of C2 pointers : No

Read offset correction : 48Overread into Lead-In and Lead-Out : NoFill up missing offset samples with silence : YesDelete leading and trailing silent blocks : NoNull samples used in CRC calculations : YesUsed interface : Native Win32 interface for Win NT & 2000

Used output format : User Defined EncoderSelected bitrate : 1024 kBit/sQuality : HighAdd ID3 tag : NoCommand line compressor : C:\Program Files (x86)\Exact Audio Copy\FLAC\FLAC.EXEAdditional command line options : -8 -V -T "ARTIST=%artist%" -T "TITLE=%title%" -T "ALBUM=%albumtitle%" -T "DATE=%year%" -T "TRACKNUMBER=%tracknr%" -T "GENRE=%genre%" -T "PERFORMER=%albuminterpret%" -T "COMPOSER=%composer%" %haslyrics%--tag-from-file=LYRICS="%lyricsfile%"%haslyrics% -T "ALBUMARTIST=%albumartist%" -T "DISCNUMBER=%cdnumber%" -T "TOTALDISCS=%totalcds%" -T "TOTALTRACKS=%numtracks%" -T "COMMENT=%comment%" %source% -o %dest%

TOC of the extracted CD

Track | Start | Length | Start sector | End sector --------------------------------------------------------- 1 | 0:00.00 | 2:56.60 | 0 | 13259 2 | 2:56.60 | 3:18.36 | 13260 | 28145 3 | 6:15.21 | 4:33.64 | 28146 | 48684 4 | 10:49.10 | 4:21.48 | 48685 | 68307 5 | 15:10.58 | 3:48.59 | 68308 | 85466 6 | 18:59.42 | 4:15.25 | 85467 | 104616 7 | 23:14.67 | 3:38.72 | 104617 | 121038 8 | 26:53.64 | 4:00.07 | 121039 | 139045 9 | 30:53.71 | 3:37.62 | 139046 | 155382 10 | 34:31.58 | 4:50.00 | 155383 | 177132 11 | 39:21.58 | 3:49.42 | 177133 | 194349 12 | 43:11.25 | 4:11.27 | 194350 | 213201 13 | 47:22.52 | 4:38.66 | 213202 | 234117

Range status and errors

Selected range

Filename G:\CD\Beth Hart & The Ocean of Souls - Beth Hart (1993 Original Recording).wav

Peak level 96.5 % Extraction speed 3.8 X Range quality 100.0 % Test CRC CBA00A52 Copy CRC CBA00A52 Copy OK

No errors occurred

AccurateRip summary

Track 1 cannot be verified as accurate (confidence 3) [065CC00E], AccurateRip returned [99071516] (AR v2)Track 2 cannot be verified as accurate (confidence 3) [3EF9731B], AccurateRip returned [02D82111] (AR v2)Track 3 cannot be verified as accurate (confidence 3) [68DCCF6D], AccurateRip returned [5CC8C544] (AR v2)Track 4 cannot be verified as accurate (confidence 3) [ED85B146], AccurateRip returned [3696CD88] (AR v2)Track 5 cannot be verified as accurate (confidence 3) [74C796C2], AccurateRip returned [B2D230B2] (AR v2)Track 6 cannot be verified as accurate (confidence 3) [718F9430], AccurateRip returned [09A28431] (AR v2)Track 7 cannot be verified as accurate (confidence 3) [E9E45849], AccurateRip returned [65F9F3DB] (AR v2)Track 8 cannot be verified as accurate (confidence 3) [113F9025], AccurateRip returned [17C5C38B] (AR v2)Track 9 cannot be verified as accurate (confidence 3) [E24690D9], AccurateRip returned [CF95D3F2] (AR v2)Track 10 cannot be verified as accurate (confidence 3) [CBE2EBF9], AccurateRip returned [3BB55FA2] (AR v2)Track 11 cannot be verified as accurate (confidence 3) [FAE03791], AccurateRip returned [BEFCCD87] (AR v2)Track 12 cannot be verified as accurate (confidence 3) [6B343525], AccurateRip returned [7EB6566B] (AR v2)Track 13 cannot be verified as accurate (confidence 3) [CCA03CDD], AccurateRip returned [CE893E9D] (AR v2)

No tracks could be verified as accurateYou may have a different pressing from the one(s) in the database

End of status report

==== Log checksum A9F1615661A26FD3F80038A900E86165B888491AA99767F327B0B705E023FA10 ====

Amazon | Discogs
01. My California - 4:35
02. Life Is Calling - 3:51
03. Happiness...any day now - 4:23
04. Love Is The Hardest - 3:44
05. Bad Love Is Good Enough - 4:27
06. Drive - 3:35
07. Sister Heroine - 4:30
08. Take It Easy On Me - 4:14
09. Like You (and everyone else) - 3:36
10. Everybody Is Sober - 4:18
11. Weight Of The World - 4:50
Exact Audio Copy V1.0 beta 1 from 15. November 2010

EAC extraction logfile from 17. September 2012, 23:33

Beth Hart / My California (M 7329 2)

Used drive : Optiarc DVD RW AD-5200S Adapter: 2 ID: 0

Read mode : SecureUtilize accurate stream : YesDefeat audio cache : YesMake use of C2 pointers : No

Read offset correction : 48Overread into Lead-In and Lead-Out : NoFill up missing offset samples with silence : YesDelete leading and trailing silent blocks : NoNull samples used in CRC calculations : YesUsed interface : Native Win32 interface for Win NT & 2000

Used output format : User Defined EncoderSelected bitrate : 1024 kBit/sQuality : HighAdd ID3 tag : NoCommand line compressor : C:\Program Files (x86)\Exact Audio Copy\FLAC\FLAC.EXEAdditional command line options : -8 -V %s

TOC of the extracted CD

Track | Start | Length | Start sector | End sector --------------------------------------------------------- 1 | 0:00.00 | 4:35.19 | 0 | 20643 2 | 4:35.19 | 3:51.25 | 20644 | 37993 3 | 8:26.44 | 4:22.65 | 37994 | 57708 4 | 12:49.34 | 3:44.08 | 57709 | 74516 5 | 16:33.42 | 4:27.32 | 74517 | 94573 6 | 21:00.74 | 3:34.62 | 94574 | 110685 7 | 24:35.61 | 4:29.67 | 110686 | 130927 8 | 29:05.53 | 4:14.37 | 130928 | 150014 9 | 33:20.15 | 3:36.30 | 150015 | 166244 10 | 36:56.45 | 4:17.71 | 166245 | 185590 11 | 41:14.41 | 4:49.48 | 185591 | 207313

Range status and errors

Selected range

Filename G:\Download\Музыка LossLess\Beth Hart\2010 - Beth Hart - My California (M 7329 2)\Beth Hart - My California (M 7329 2).wav

Peak level 99.8 % Extraction speed 0.3 X Range quality 100.0 % Test CRC E1764F8B Copy CRC E1764F8B Copy OK

No errors occurred

AccurateRip summary

Track 1 accurately ripped (confidence 3) [45F3B11A]Track 2 accurately ripped (confidence 3) [8110C16B]Track 3 accurately ripped (confidence 3) [497CAE88]Track 4 accurately ripped (confidence 3) [8EABDC00]Track 5 accurately ripped (confidence 3) [C671C50B]Track 6 accurately ripped (confidence 3) [AD28C212]Track 7 accurately ripped (confidence 3) [FF58B331]Track 8 accurately ripped (confidence 3) [104D25F7]Track 9 accurately ripped (confidence 3) [84239CBD]Track 10 accurately ripped (confidence 3) [FAFE658D]Track 11 accurately ripped (confidence 3) [9FB9DC13]

All tracks accurately ripped

End of status report
Live Albums

Amazon | Discogs
01. Delicious Surprise - 4:15
02. Guilty - 4:52
03. Leave The Light On - 4:42
04. Lifts You Up - 3:59
05. Broken & Ugly - 4:48
06. Get Your Shit Together - 5:56
07. Immortal - 7:07
08. Monkey Back - 5:37
09. Am I The One - 10:44
10. Mama - 4:25
11. L.A. Song - 4:31
12. World Without You - 5:17
13. Whole Lotta Love - 7:54
Exact Audio Copy V1.0 beta 3 from 29. August 2011

EAC extraction logfile from 26. September 2012, 23:47

Beth Hart / Live At Paradiso

Used drive : Optiarc DVD RW AD-5200S Adapter: 2 ID: 0

Read mode : SecureUtilize accurate stream : YesDefeat audio cache : YesMake use of C2 pointers : No

Read offset correction : 48Overread into Lead-In and Lead-Out : NoFill up missing offset samples with silence : YesDelete leading and trailing silent blocks : NoNull samples used in CRC calculations : YesUsed interface : Native Win32 interface for Win NT & 2000

Used output format : User Defined EncoderSelected bitrate : 1024 kBit/sQuality : HighAdd ID3 tag : NoCommand line compressor : C:\Program Files (x86)\Exact Audio Copy\FLAC\FLAC.EXEAdditional command line options : -8 -V -T "ARTIST=%artist%" -T "TITLE=%title%" -T "ALBUM=%albumtitle%" -T "DATE=%year%" -T "TRACKNUMBER=%tracknr%" -T "GENRE=%genre%" -T "PERFORMER=%albuminterpret%" -T "COMPOSER=%composer%" %haslyrics%--tag-from-file=LYRICS="%lyricsfile%"%haslyrics% -T "ALBUMARTIST=%albumartist%" -T "DISCNUMBER=%cdnumber%" -T "TOTALDISCS=%totalcds%" -T "TOTALTRACKS=%numtracks%" -T "COMMENT=%comment%" %source% -o %dest%

TOC of the extracted CD

Track | Start | Length | Start sector | End sector --------------------------------------------------------- 1 | 0:00.00 | 4:15.15 | 0 | 19139 2 | 4:15.15 | 4:52.18 | 19140 | 41057 3 | 9:07.33 | 4:42.32 | 41058 | 62239 4 | 13:49.65 | 3:58.45 | 62240 | 80134 5 | 17:48.35 | 4:47.48 | 80135 | 101707 6 | 22:36.08 | 5:55.45 | 101708 | 128377 7 | 28:31.53 | 7:07.17 | 128378 | 160419 8 | 35:38.70 | 5:37.13 | 160420 | 185707 9 | 41:16.08 | 10:44.35 | 185708 | 234042 10 | 52:00.43 | 4:24.49 | 234043 | 253891 11 | 56:25.17 | 4:31.08 | 253892 | 274224 12 | 60:56.25 | 5:16.58 | 274225 | 297982 13 | 66:13.08 | 7:53.57 | 297983 | 333514

Range status and errors

Selected range

Filename G:\Download\Музыка LossLess\Beth Hart\2005 - Beth Hart - Live At Paradiso (KOC-CD-9962)\Beth Hart - Live At Paradiso.wav

Peak level 98.8 % Extraction speed 4.4 X Range quality 100.0 % Test CRC 8FC0A2AE Copy CRC 8FC0A2AE Copy OK

No errors occurred

AccurateRip summary

Track 1 cannot be verified as accurate (confidence 9) [1A88C4BA], AccurateRip returned [C84D7268] (AR v2)Track 2 cannot be verified as accurate (confidence 9) [23B1BE10], AccurateRip returned [1E00B83A] (AR v2)Track 3 cannot be verified as accurate (confidence 9) [40A6BBCE], AccurateRip returned [7E9E9255] (AR v2)Track 4 cannot be verified as accurate (confidence 9) [6C3E162D], AccurateRip returned [F4748AC1] (AR v2)Track 5 cannot be verified as accurate (confidence 9) [041D4912], AccurateRip returned [7654FD0E] (AR v2)Track 6 cannot be verified as accurate (confidence 9) [C5E5198A], AccurateRip returned [E07B2B22] (AR v2)Track 7 cannot be verified as accurate (confidence 9) [771E9B47], AccurateRip returned [F380123D] (AR v2)Track 8 cannot be verified as accurate (confidence 9) [AE16A34C], AccurateRip returned [F1AB3792] (AR v2)Track 9 cannot be verified as accurate (confidence 9) [FED3B2E6], AccurateRip returned [34C6F5F3] (AR v2)Track 10 cannot be verified as accurate (confidence 9) [1F68BE95], AccurateRip returned [8880F429] (AR v2)Track 11 cannot be verified as accurate (confidence 9) [B3818D9D], AccurateRip returned [E6C3FF8B] (AR v2)Track 12 cannot be verified as accurate (confidence 9) [E8E4CC21], AccurateRip returned [AD94A63B] (AR v2)Track 13 cannot be verified as accurate (confidence 9) [2CD1ECB3], AccurateRip returned [6EB7D6DF] (AR v2)

No tracks could be verified as accurateYou may have a different pressing from the one(s) in the database

End of status report

==== Log checksum F9799CB7B8C69A7210AD1A81A061A6EA0B4AB05B86F2880C0708ADE1B18F9C33 ====
Collaboration Albums

Amazon | Discogs
01. Sinner's Prayer - 4:28
02. Chocolate Jesus - 2:40
03. Your Heart Is As Black As Night - 5:01
04. For My Friend - 4:12
05. Don't Explain - 4:35
06. I'd Rather Go Blind - 8:07
07. Something's Got A Hold On Me - 6:05
08. I'll Take Care Of You - 5:13
09. Well, well - 3:42
10. Ain't No Way - 6:48
Exact Audio Copy V1.0 beta 1 from 15. November 2010

EAC extraction logfile from 26. January 2012, 22:01

Beth Hart & Joe Bonamassa / Don't Explain

Used drive : Optiarc DVD RW AD-5200S Adapter: 2 ID: 0

Read mode : SecureUtilize accurate stream : YesDefeat audio cache : YesMake use of C2 pointers : No

Read offset correction : 48Overread into Lead-In and Lead-Out : NoFill up missing offset samples with silence : YesDelete leading and trailing silent blocks : NoNull samples used in CRC calculations : YesUsed interface : Native Win32 interface for Win NT & 2000

Used output format : User Defined EncoderSelected bitrate : 1024 kBit/sQuality : HighAdd ID3 tag : NoCommand line compressor : C:\Program Files (x86)\Exact Audio Copy\FLAC\FLAC.EXEAdditional command line options : -8 -V %s

TOC of the extracted CD

Track | Start | Length | Start sector | End sector --------------------------------------------------------- 1 | 0:00.00 | 4:28.00 | 0 | 20099 2 | 4:28.00 | 2:39.72 | 20100 | 32096 3 | 7:07.72 | 5:00.66 | 32097 | 54662 4 | 12:08.63 | 4:11.41 | 54663 | 73528 5 | 16:20.29 | 4:34.41 | 73529 | 94119 6 | 20:54.70 | 8:06.58 | 94120 | 130627 7 | 29:01.53 | 6:05.29 | 130628 | 158031 8 | 35:07.07 | 5:13.07 | 158032 | 181513 9 | 40:20.14 | 3:42.24 | 181514 | 198187 10 | 44:02.38 | 6:47.49 | 198188 | 228761

Range status and errors

Selected range

Filename G:\Download\Музыка LossLess\Joe Bonamassa\Collaboration albums\2011 - Beth Hart & Joe Bonamassa - Don't Explain [2011, J&R Adventures - PRAR931391]\Beth Hart & Joe Bonamassa - Don't Explain.wav

Peak level 99.9 % Extraction speed 0.5 X Range quality 100.0 % Test CRC 5A413B5F Copy CRC 5A413B5F Copy OK

No errors occurred

AccurateRip summary

Track 1 accurately ripped (confidence 4) [0DD36698]Track 2 accurately ripped (confidence 4) [3E263CEE]Track 3 accurately ripped (confidence 4) [689F7905]Track 4 accurately ripped (confidence 4) [B92C41DB]Track 5 accurately ripped (confidence 4) [0898479E]Track 6 accurately ripped (confidence 4) [93EBE994]Track 7 accurately ripped (confidence 4) [0F4DB9A4]Track 8 accurately ripped (confidence 4) [49CDDF16]Track 9 accurately ripped (confidence 4) [99C663A0]Track 10 accurately ripped (confidence 4) [46852C64]

All tracks accurately ripped

End of status report

Amazon | Discogs
01. Sinner's Prayer - 4:28
02. Chocolate Jesus - 2:40
03. Your Heart Is As Black As Night - 5:01
04. For My Friend - 4:12
05. Don't Explain - 4:35
06. I'd Rather Go Blind - 8:07
07. Something's Got A Hold On Me - 6:05
08. I'll Take Care Of You - 5:13
09. Well, well - 3:42
10. Ain't No Way - 6:50
11. I'll Take Care Of You (Radio Edit) - 3:19
Exact Audio Copy V0.99 prebeta 5 from 4. May 2009

Отчёт EAC об извлечении, выполненном 1. июня 2012, 10:44

Beth Hart & Joe Bonamassa / Don't Explain

Дисковод: PIONEER DVD-RW DVR-218L Adapter: 0 ID: 0

Режим чтения : ДостоверностьИспользование точного потока : ДаОтключение кэша аудио : ДаИспользование указателей C2 : Нет

Коррекция смещения при чтении : 6Способность читать области Lead-in и Lead-out : НетЗаполнение пропущенных сэмплов тишиной : ДаУдаление блоков с тишиной в начале и конце : НетПри вычислениях CRC использовались нулевые сэмплы : ДаИнтерфейс : Встроенный Win32-интерфейс для Win NT/2000

Выходной формат : Пользовательский кодировщикВыбранный битрейт : 128 kBit/sКачество : ВысокийДобавление ID3-тэга : НетУтилита сжатия : C:\Program Files (x86)\Exact Audio Copy\Flac\flac.exeДополнительные параметры : -5 -V -T "ARTIST=%a" -T "TITLE=%t" -T "ALBUM=%g" -T "DATE=%y" -T "TRACKNUMBER=%n" -T "GENRE=%m" -T "COMMENT=EAC FLAC -5" %s

TOC извлечённого CD

Трек | Старт | Длительность | Начальный сектор | Конечный сектор --------------------------------------------------------------------- 1 | 0:00.00 | 4:28.00 | 0 | 20099 2 | 4:28.00 | 2:39.72 | 20100 | 32096 3 | 7:07.72 | 5:00.66 | 32097 | 54662 4 | 12:08.63 | 4:11.41 | 54663 | 73528 5 | 16:20.29 | 4:34.41 | 73529 | 94119 6 | 20:54.70 | 8:06.58 | 94120 | 130627 7 | 29:01.53 | 6:05.29 | 130628 | 158031 8 | 35:07.07 | 5:13.07 | 158032 | 181513 9 | 40:20.14 | 3:42.24 | 181514 | 198187 10 | 44:02.38 | 6:50.01 | 198188 | 228938 11 | 50:52.39 | 3:19.24 | 228939 | 243887

Характеристики диапазона извлечения и сообщения об ошибках

Выбранный диапазон

Имя файла F:\_МУЗЫКА\_LOSSLESS\ИХНЕЕ\Joe Bonamassa\Collaboration albums\2011 Don't Explain (with Beth Hart) [Provogue Records - PRD 7350 2]\2011 Beth Hart & Joe Bonamassa - Don't Explain.wav

Пиковый уровень 99.9 % Качество диапазона 100.0 % CRC теста 311E24A2 CRC копии 311E24A2 Копирование... OK

Ошибок не произошло

AccurateRip: сводка

Трек 1 точное извлечение (доверие 27) [43CAE520]Трек 2 точное извлечение (доверие 27) [F16EDFD7]Трек 3 точное извлечение (доверие 27) [95F0FB2C]Трек 4 точное извлечение (доверие 27) [F4DD6047]Трек 5 точное извлечение (доверие 27) [4FF90F4A]Трек 6 точное извлечение (доверие 27) [17D9F21C]Трек 7 точное извлечение (доверие 27) [55B9356F]Трек 8 точное извлечение (доверие 27) [390CDFA5]Трек 9 точное извлечение (доверие 27) [617942FC]Трек 10 точное извлечение (доверие 27) [837AD8C7]Трек 11 точное извлечение (доверие 27) [C07D2D1B]

Все треки извлечены точно

Конец отчёта

Amazon | Discogs
01. Sinner's Prayer - 4:29
02. Chocolate Jesus - 2:40
03. Your Heart Is As Black As Night - 5:01
04. For My Friend - 4:12
05. Don't Explain - 4:35
06. I'd Rather Go Blind - 8:07
07. Something's Got A Hold On Me - 6:05
08. I'll Take Care Of You - 5:13
09. Well, well - 3:42
10. Ain't No Way - 6:50
11. I'll Take Care Of You - Live Acoustic - 3:20
12. Chocolate Jesus - Live Acoustic - 2:22
13. LA Song - Live Acoustic - 4:19
14. At The Bottom - Live Acoustic - 4:39
Exact Audio Copy V1.0 beta 1 from 15. November 2010

EAC extraction logfile from 30. June 2012, 9:22

Beth Hart & Joe Bonamassa / Don't Explain (Limited Edition) (PRD7385 2)

Used drive : Optiarc DVD RW AD-5200S Adapter: 2 ID: 0

Read mode : SecureUtilize accurate stream : YesDefeat audio cache : YesMake use of C2 pointers : No

Read offset correction : 48Overread into Lead-In and Lead-Out : NoFill up missing offset samples with silence : YesDelete leading and trailing silent blocks : NoNull samples used in CRC calculations : YesUsed interface : Native Win32 interface for Win NT & 2000

Used output format : User Defined EncoderSelected bitrate : 1024 kBit/sQuality : HighAdd ID3 tag : NoCommand line compressor : C:\Program Files (x86)\Exact Audio Copy\FLAC\FLAC.EXEAdditional command line options : -8 -V %s

TOC of the extracted CD

Track | Start | Length | Start sector | End sector --------------------------------------------------------- 1 | 0:00.00 | 4:29.00 | 0 | 20174 2 | 4:29.00 | 2:39.72 | 20175 | 32171 3 | 7:08.72 | 5:00.66 | 32172 | 54737 4 | 12:09.63 | 4:11.41 | 54738 | 73603 5 | 16:21.29 | 4:34.41 | 73604 | 94194 6 | 20:55.70 | 8:06.58 | 94195 | 130702 7 | 29:02.53 | 6:05.29 | 130703 | 158106 8 | 35:08.07 | 5:13.07 | 158107 | 181588 9 | 40:21.14 | 3:42.24 | 181589 | 198262 10 | 44:03.38 | 6:49.69 | 198263 | 229006 11 | 50:53.32 | 3:19.52 | 229007 | 243983 12 | 54:13.09 | 2:21.60 | 243984 | 254618 13 | 56:34.69 | 4:19.07 | 254619 | 274050 14 | 60:54.01 | 4:38.73 | 274051 | 294973

Range status and errors

Selected range

Filename G:\Download\Музыка LossLess\Joe Bonamassa\Collaboration albums\2011 - Beth Hart & Joe Bonamassa - Don't Explain (Limited Edition) [2011, Provogue Records - PRD 7385 2]\Beth Hart & Joe Bonamassa - Don't Explain (Limited Edition) (PRD7385 2).wa

Peak level 99.9 % Extraction speed 0.2 X Range quality 99.9 % Test CRC 8B81F27E Copy CRC 8B81F27E Copy OK

No errors occurred

AccurateRip summary

Track 1 not present in databaseTrack 2 not present in databaseTrack 3 accurately ripped (confidence 2) [95F0FB2C]Track 4 accurately ripped (confidence 2) [F4DD6047]Track 5 accurately ripped (confidence 2) [9BC71996]Track 6 accurately ripped (confidence 2) [0EE1F8C5]Track 7 accurately ripped (confidence 2) [55B9356F]Track 8 accurately ripped (confidence 2) [390CDFA5]Track 9 accurately ripped (confidence 2) [617942FC]Track 10 accurately ripped (confidence 2) [837AD8C7]Track 11 accurately ripped (confidence 2) [BDC6B19D]Track 12 accurately ripped (confidence 2) [E99D1A78]Track 13 accurately ripped (confidence 2) [A07ED4AF]Track 14 accurately ripped (confidence 2) [F4CCB5FF]

12 track(s) accurately ripped 2 track(s) not present in the AccurateRip database

Some tracks could not be verified as accurate

End of status report


Трекер:  [ 14-Окт-2012 11:15 ]

  

Скачать .torrent

Размер .torrent файла 49 KB


Размер: 5.57 GB
Хэш (hash) релиза: c766b22b35bbcb19561eb5c4ebec069597ff83f7

Торренты, похожие на Beth Hart - Дискография скачать торрент

Форум Название Автор Размер S L Добавлен
Зарубежный Rock ·· (Rock, Blues Rock) Beth Hart - Дискография - Discography - 1996-2012, FLAC (image+.cue), lossless Galfimbul 62212207145.79 GB 0 0 1355079060

21:51

9-Дек-12

Еще никто не оставлял запись к записи скачать торрент Beth Hart - Дискография . Будь первым!

!Обратная связь