Скачать через торрент музыку Rush 1997-Retrospective I бесплатно без регистрации torrent

Если у вас наблюдаются проблемы со скриншотами, переходом по ссылками, скачиванием торрентов - проблемы в блокировщике рекламы AdBlock. #хорошегоДня!


Статистика раздачи
Размер:  585 MB   |    Зарегистрирован:  4 года 10 месяцев   |    .torrent скачан:  17 раз   |   
Раздают:  1  
   
Загрузка...
 
Автор Сообщение

Galfimbul

avatar Galfimbul


1997-Retrospective I
[AMCY-2287, Japan Press]

Жанр: Progressive Rock
Страна исполнителя: Canada
Страна-производитель диска: Japan
Дата издания диска: 1997•7•10
Издатель (лейбл): Anthem / EastWest Japan
Номер по каталогу: AMCY-2287
Аудио кодек: FLAC (*.flac)
Тип рипа: image+.cue
Битрейт аудио: lossless
Продолжительность: 1:15:47
Источник: Jarpomarx (MMT)
Наличие сканов в содержимом раздачи:
01. The Spirit Of Radio (4:59)
02. The Trees (4:45)
03. Something For Nothing (4:01)
04. Freewill (5:24)
05. Xanadu (11:07)
06. Bastille Day (4:40)
07. By-Tor And The Snow Dog (8:40)
08. Anthem (4:24)
09. Closer To The Heart (2:55)
10. 2112 Overture (4:33)
11. The Temples Of Syrinx (2:13)
12. La Villa Strangiato (9:37)
13. Fly By Night (3:22)
14. Finding My Way (5:06)
Exact Audio Copy V0.99 prebeta 5 from 4. May 2009

Archivo Log de extracciones desde 2. Octubre 2012, 11:03

Rush / Retrospective I (1974-1980) - Japan (AMCY-2287)

Usar unidad : HL-DT-STDVDRAM GH22NS70 Adapter: 0 ID: 0

Modo de Lectura : SeguroUtilizar Corriente Exacta : SíDescartar Audio caché : SíUtilizar los punteros C2 : No

Corrección de Desplazamiento de Lectura : 667Sobreleer tanto en Lead-In como en Lead-Out : NoRellenar las muestras faltantes con silencios : SíEliminar silencios inicial y final : NoSe han usado muestras nulas en los cálculos CRC : SíInterfaz usada : Interfaz propio de Win32 para Windowns NT y 2000

Formato de Salida utilizado : Compresor definido por el usuarioBitrate seleccionado : 32 kBit/sCalidad : AltaAñadir Etiqueta ID3 : NoCompresor de linea de comandos : C:\Program Files (x86)\Exact Audio Copy\Flac\flac.exeOpciones adicionales en línea de comandos : -6 -V %s

TOC del CD extraido

Pista | Inicio | Duración | Sector inicial | Sector final ------------------------------------------------------------- 1 | 0:00.00 | 4:59.25 | 0 | 22449 2 | 4:59.25 | 4:45.05 | 22450 | 43829 3 | 9:44.30 | 4:00.50 | 43830 | 61879 4 | 13:45.05 | 5:24.20 | 61880 | 86199 5 | 19:09.25 | 11:07.25 | 86200 | 136249 6 | 30:16.50 | 4:40.33 | 136250 | 157282 7 | 34:57.08 | 8:39.57 | 157283 | 196264 8 | 43:36.65 | 4:24.35 | 196265 | 216099 9 | 48:01.25 | 2:55.23 | 216100 | 229247 10 | 50:56.48 | 4:32.40 | 229248 | 249687 11 | 55:29.13 | 2:13.35 | 249688 | 259697 12 | 57:42.48 | 9:37.30 | 259698 | 303002 13 | 67:20.03 | 3:22.17 | 303003 | 318169 14 | 70:42.20 | 5:05.40 | 318170 | 341084

Gama de estados y errores

Seleccionar gama

Nombre de Archivo E:\Música\EAC\Rush\Retrospective I\Rush - Retrospective I (1974-1980) - Japan (AMCY-2287).wav

Nivel Pico 99.9 % Gama de Calidad 100.0 % Test CRC 657342C9 Copiar CRC 657342C9 Copia OK

Sin Errores

Resumen AccurateRip

Pista 1 no presente en la base de datosPista 2 no presente en la base de datosPista 3 no presente en la base de datosPista 4 no presente en la base de datosPista 5 no presente en la base de datosPista 6 no presente en la base de datosPista 7 no presente en la base de datosPista 8 no presente en la base de datosPista 9 no presente en la base de datosPista 10 no presente en la base de datosPista 11 no presente en la base de datosPista 12 no presente en la base de datosPista 13 no presente en la base de datosPista 14 no presente en la base de datos

Ninguna de las pistas está presente en la base de datos AccurateRip

Final del Informe
REM GENRE "Progressive Rock"REM DATE 1997REM DISCID C111C30EREM COMMENT "ExactAudioCopy v0.99pb5"PERFORMER "Rush"TITLE "Retrospective I (1974-1980) - Japan (AMCY-2287)"FILE "Rush - Retrospective I (1974-1980) - Japan (AMCY-2287).flac" WAVE TRACK 01 AUDIO TITLE "The Spirit Of Radio" PERFORMER "Rush" INDEX 01 00:00:00 TRACK 02 AUDIO TITLE "The Trees" PERFORMER "Rush" INDEX 00 04:56:60 INDEX 01 04:59:25 TRACK 03 AUDIO TITLE "Something For Nothing" PERFORMER "Rush" INDEX 00 09:41:60 INDEX 01 09:44:30 TRACK 04 AUDIO TITLE "Freewill" PERFORMER "Rush" INDEX 00 13:42:25 INDEX 01 13:45:05 TRACK 05 AUDIO TITLE "Xanadu" PERFORMER "Rush" INDEX 00 19:06:58 INDEX 01 19:09:25 TRACK 06 AUDIO TITLE "Bastille Day" PERFORMER "Rush" INDEX 00 30:12:70 INDEX 01 30:16:50 TRACK 07 AUDIO TITLE "By-Tor And The Snow Dog" PERFORMER "Rush" INDEX 00 34:53:55 INDEX 01 34:57:08 TRACK 08 AUDIO TITLE "Anthem" PERFORMER "Rush" INDEX 00 43:34:15 INDEX 01 43:36:65 TRACK 09 AUDIO TITLE "Closer To The Heart" PERFORMER "Rush" INDEX 00 47:58:30 INDEX 01 48:01:25 TRACK 10 AUDIO TITLE "2112 Overture" PERFORMER "Rush" INDEX 00 50:53:15 INDEX 01 50:56:48 TRACK 11 AUDIO TITLE "The Temples Of Syrinx" PERFORMER "Rush" INDEX 01 55:29:13 TRACK 12 AUDIO TITLE "La Villa Strangiato" PERFORMER "Rush" INDEX 00 57:40:63 INDEX 01 57:42:48 TRACK 13 AUDIO TITLE "Fly By Night" PERFORMER "Rush" INDEX 00 67:17:20 INDEX 01 67:20:03 TRACK 14 AUDIO TITLE "Finding My Way" PERFORMER "Rush" INDEX 00 70:41:10 INDEX 01 70:42:20
[CUETools log; Date: 08.10.2012 16:14:07; Version: 2.1.4][CTDB TOCID: jLwIj4FxvKYUz8Yb9UPZF9t12ng-] found.Track | CTDB Status 1 | (1/1) Accurately ripped 2 | (1/1) Accurately ripped 3 | (1/1) Accurately ripped 4 | (1/1) Accurately ripped 5 | (1/1) Accurately ripped 6 | (1/1) Accurately ripped 7 | (1/1) Accurately ripped 8 | (1/1) Accurately ripped 9 | (1/1) Accurately ripped 10 | (1/1) Accurately ripped 11 | (1/1) Accurately ripped 12 | (1/1) Accurately ripped 13 | (1/1) Accurately ripped 14 | (1/1) Accurately ripped[AccurateRip ID: 0027fede-01aa897a-c111c30e] disk not present in database.

Track Peak [ CRC32 ] [W/O NULL] -- 99,9 [657342C9] [C444511C] 01 99,9 [139CB93D] [28A55F8A] 02 97,7 [3F3D840F] [9E8D9A9B] 03 97,7 [EF2469E0] [90413C12] 04 99,6 [57D8B6E7] [9CE93FA9] 05 99,0 [7E104370] [721F30DD] 06 97,7 [4ACE41FE] [FBAF772D] 07 99,0 [39FBF217] [D4DE4788] 08 99,0 [36F9B73A] [CE7B4D75] 09 99,0 [6FF2F89D] [163C3169] 10 97,7 [E35B1E04] [289D1D63] 11 97,7 [0589C965] [D85C5136] 12 97,7 [DFD61F84] [E9B75AFB] 13 99,0 [8F1F4B01] [CA10FFA9] 14 99,9 [21756850] [3396ECCF]
foobar2000 1.1.1 / Dynamic Range Meter 1.1.1log date: 2012-10-08 16:18:06

--------------------------------------------------------------------------------Analyzed: Rush / Retrospective I (1974-1980) - Japan (AMCY-2287)--------------------------------------------------------------------------------

DR Peak RMS Duration Track--------------------------------------------------------------------------------DR10 0.00 dB -11.34 dB 4:59 01-The Spirit Of RadioDR11 -0.20 dB -13.73 dB 4:45 02-The TreesDR9 -0.20 dB -11.42 dB 4:01 03-Something For NothingDR11 -0.03 dB -12.15 dB 5:24 04-FreewillDR9 -0.09 dB -11.99 dB 11:07 05-XanaduDR10 -0.20 dB -11.92 dB 4:40 06-Bastille DayDR11 -0.09 dB -13.04 dB 8:40 07-By-Tor And The Snow DogDR9 -0.09 dB -10.74 dB 4:24 08-AnthemDR10 -0.09 dB -13.53 dB 2:55 09-Closer To The HeartDR10 -0.20 dB -12.00 dB 4:33 10-2112 OvertureDR9 -0.20 dB -10.37 dB 2:13 11-The Temples Of SyrinxDR10 -0.20 dB -13.16 dB 9:37 12-La Villa StrangiatoDR11 -0.09 dB -11.94 dB 3:22 13-Fly By NightDR10 0.00 dB -11.48 dB 5:06 14-Finding My Way--------------------------------------------------------------------------------

Number of tracks: 14Official DR value: DR10

Samplerate: 44100 HzChannels: 2Bits per sample: 16Bitrate: 906 kbpsCodec: FLAC

The album is essentially a collection of Rush best songs from the first decade of the band. Moreover, the set is not in chronological order.

Track 14 is from "Rush" (1974).
Tracks 7, 8 and 13 are from "Fly by Night" (1975).
Track 6 is from "Caress of Steel" (1975).
Tracks 3, 10 and 11 are from "2112" (1976).
Tracks 5 and 9 are from "A Farewell to Kings" (1977).
Tracks 2 and 12 are from "Hemispheres" (1978).
Tracks 1 and 4 are from "Permanent Waves" (1980).

• Geddy Lee - bass guitars, vocals, synthesizers
• Alex Lifeson - electric and acoustic guitars
• Neil Peart - drums, percussion
• John Rutsey - drums on "Finding My Way"
Огромное спасибо автору рипа!

Трекер:  [ 14-Окт-2012 11:10 ]

  

Скачать .torrent

Размер .torrent файла 13 KB


Размер: 585 MB
Хэш (hash) релиза: f6d96c79da0ceced30289ca1a0cdd0b00f6c26de

Еще никто не оставлял запись к записи скачать торрент Rush 1997-Retrospective I . Будь первым!

!Обратная связь