Скачать через торрент музыку CCS - CCS - II бесплатно без регистрации torrent

Если у вас наблюдаются проблемы со скриншотами, переходом по ссылками, скачиванием торрентов - проблемы в блокировщике рекламы AdBlock. #хорошегоДня!


Статистика раздачи
Размер:  342 MB   |    Зарегистрирован:  4 года 10 месяцев   |    .torrent скачан:  23 раза   |   
Раздают:  1  
   
Загрузка...
 
Автор Сообщение

Galfimbul

avatar Galfimbul


CCS / CCS - II (1972)

Жанр: Blues Rock,Jazz Rock
Год издания: 2000
Аудиокодек: FLAC (*.flac)
Тип рипа: image+.cue
Битрейт аудио: lossless
Продолжительность: 51:33
Источник (релизер): my disc
Наличие сканов в содержимом раздачи: да
Треклист:
01. Brother (Cameron / Korner) [0:03:26.15]
02. Black Dog (Page / Plant / Jones) [0:04:08.61]
03. I Want You Back (The Corporation) [0:03:43.45]
04. Running Out Of Sky (Cameron) [0:03:58.61]
05. Whole Lotta Rock 'n' Roll [0:06:12.63]
a)School Day (Berry)
b)Lucille ( Penniman / Collins)
c)Long Tall Sally (Penniman / Johnson /Blackwell)
d)Whole Lotta Love (Page / Plant / Jones /Bonham)
06. a)Chaos (Cameron / Korner) [0:08:55.41]
b)Can't We Ever Get It Back (Cameron)
07. This Is My Life (Thorup) [0:03:53.68]
08. Misunderstood (Cameron) [0:02:48.11]
09. Moggie's Song (Cameron / Korner) [0:03:42.29]
10. City (Cameron) [0:03:37.24]
bonus:
11. Mister What You Can't Have (Cameron) [0:04:10.06]
12. Sixteen Tons (Travis) [0:02:55.20]
Exact Audio Copy V0.99 prebeta 4 from 23. January 2008

Отчёт EAC об извлечении, выполненном 9. октября 2012, 23:03

CCS / CCS - II

Дисковод: ASUS DRW-1814BL Adapter: 1 ID: 0

Режим чтения : ДостоверностьИспользование точного потока : ДаОтключение кэша аудио : ДаИспользование указателей C2 : Нет

Коррекция смещения при чтении : 6Способность читать области Lead-in и Lead-out : НетЗаполнение пропущенных сэмплов тишиной : ДаУдаление блоков с тишиной в начале и конце : НетПри вычислениях CRC использовались нулевые сэмплы : ДаИнтерфейс : Установленный внешний ASPI-интерфейс

Выходной формат : Пользовательский кодировщикВыбранный битрейт : 1024 kBit/sКачество : ВысокийДобавление ID3-тэга : НетУтилита сжатия : C:\Program Files\Exact Audio Copy\FLAC\FLAC.EXEДополнительные параметры : -6 -V -T "ARTIST=%a" -T "TITLE=%t" -T "ALBUM=%g" -T "DATE=%y" -T "TRACKNUMBER=%n" -T "GENRE=%m" -T "COMMENT=%e" %s -o %d

TOC извлечённого CD

Трек | Старт | Длительность | Начальный сектор | Конечный сектор --------------------------------------------------------------------- 1 | 0:00.00 | 3:26.15 | 0 | 15464 2 | 3:26.15 | 4:08.61 | 15465 | 34125 3 | 7:35.01 | 3:43.45 | 34126 | 50895 4 | 11:18.46 | 3:58.61 | 50896 | 68806 5 | 15:17.32 | 6:12.63 | 68807 | 96769 6 | 21:30.20 | 8:55.41 | 96770 | 136935 7 | 30:25.61 | 3:53.68 | 136936 | 154478 8 | 34:19.54 | 2:48.11 | 154479 | 167089 9 | 37:07.65 | 3:42.29 | 167090 | 183768 10 | 40:50.19 | 3:37.24 | 183769 | 200067 11 | 44:27.43 | 4:10.06 | 200068 | 218823 12 | 48:37.49 | 2:55.20 | 218824 | 231968

Характеристики диапазона извлечения и сообщения об ошибках

Выбранный диапазон

Имя файла D:\loSSleSS\CCS'72\CCS - CCS - II.wav

Пиковый уровень 100.0 % Качество диапазона 100.0 % CRC теста 9A02F71F CRC копии 9A02F71F Копирование... OK

Ошибок не произошло

AccurateRip: сводка

Трек 1 точность не определена (достоверность 12) [23333DA2], AccurateRip вернул [CFC37066]Трек 2 точность не определена (достоверность 12) [7B0CEF57], AccurateRip вернул [15DA8E47]Трек 3 точность не определена (достоверность 12) [65C6BC7F], AccurateRip вернул [693C474B]Трек 4 точность не определена (достоверность 12) [E0E30273], AccurateRip вернул [BD37F15F]Трек 5 точность не определена (достоверность 12) [FEFC7FD7], AccurateRip вернул [8D51EAAB]Трек 6 точность не определена (достоверность 12) [6FF19974], AccurateRip вернул [1F6D2400]Трек 7 точность не определена (достоверность 12) [B74E637B], AccurateRip вернул [B0F55347]Трек 8 точность не определена (достоверность 12) [809931DB], AccurateRip вернул [51153623]Трек 9 точность не определена (достоверность 12) [BD98D7DB], AccurateRip вернул [ECFD7E0F]Трек 10 точность не определена (достоверность 12) [06C472F8], AccurateRip вернул [11943A68]Трек 11 точность не определена (достоверность 12) [1894AE3D], AccurateRip вернул [686949AD]Трек 12 точность не определена (достоверность 12) [A764987D], AccurateRip вернул [009D87D1]

Ни один трек не прошёл проверки на точностьВ вашей базе может быть иной вариант штамповки диска

Конец отчёта


Трекер:  [ 14-Окт-2012 11:10 ]

  

Скачать .torrent

Размер .torrent файла 14 KB


Размер: 342 MB
Хэш (hash) релиза: 695edd0d947d360622dc436e1afb090d2a66d0ad

Еще никто не оставлял запись к записи скачать торрент CCS - CCS - II . Будь первым!

!Обратная связь