Скачать через торрент музыку Pangaea - Welcome To The Theatre... бесплатно без регистрации torrent

Если у вас наблюдаются проблемы со скриншотами, переходом по ссылками, скачиванием торрентов - проблемы в блокировщике рекламы AdBlock. #хорошегоДня!


Статистика раздачи
Размер:  369 MB   |    Зарегистрирован:  4 года 10 месяцев   |    .torrent скачан:  13 раз   |   
Раздают:  1  
   
Загрузка...
 
Автор Сообщение

Galfimbul

avatar Galfimbul


Pangaea - Welcome To The Theatre...

Жанр: Neo Progressive
Год выпуска диска: 1998
Страна: USA
Label: Angular records
Catalog Nr.: SCAN 8208.AR/SPV 85-10022 CD
Аудио кодек: FLAC
Тип рипа: image+.cue(test&copy)
Битрейт аудио: lossless
Продолжительность: 67:05
Источник: hyperborea70


Трэклист:

1. Autumn Monsoon (4:58)
2. Crimson: (7:33)
i) Overture ii) The Deep Blue
3. Dark Room (4:13)
4. Ride It Easy (3:27)
5. The White Shaman (2:41)
6. The Fall Of Rome (5:58)
7. Altar Of The Dragon (4:30)
8. The Hobo, The Dog, & The Moon (5:26)
9. Cry For You (3:47)
10. Fanfare For One World (4:14)
11. The Nightmare (6:15)

Total Time: 67:05

Музыканты

- Andi Schenck /drums & percussion
- Corey Schenck / keyboards, guitars & backing vocals
- Darrell Masingale / vocals & lead guitar
- Ron Poulsen / bass guitar & backing vocals

Об альбоме: Третий альбом официальной дискографии американской нео-проговой команды является, собственно, вторым релизом проекта Pangaea.
Дебютный альбом коллектива (Liquid Placidity) вышел в 1995 под "маркой" Artica, но входит в дискографию группы по версии ПА.
Рип сделан и представлен к раздаче hyperborea70, все благодарности за это адресуются ему.
Exact Audio Copy V1.0 beta 3 from 29. August 2011

Отчёт EAC об извлечении, выполненном 6. октября 2012, 12:23

Pangaea / Welcome To The Theatre...1998

Дисковод: Optiarc DVD RW AD-7203A Adapter: 0 ID: 1

Режим чтения : Достоверность
Использование точного потока : Да
Отключение кэша аудио : Да
Использование указателей C2 : Нет

Коррекция смещения при чтении : 48
Способность читать области Lead-in и Lead-out : Нет
Заполнение пропущенных сэмплов тишиной : Да
Удаление блоков с тишиной в начале и конце : Нет
При вычислениях CRC использовались нулевые сэмплы : Да
Интерфейс : Встроенный Win32-интерфейс для Win NT/2000

Выходной формат : Внутренние WAV-операции
Формат сэмплов : 44.100 Гц; 16 бит; стерео

TOC извлечённого CD

Трек | Старт | Длительность | Начальный сектор | Конечный сектор
---------------------------------------------------------------------
1 | 0:00.00 | 4:58.11 | 0 | 22360
2 | 4:58.11 | 7:33.58 | 22361 | 56393
3 | 12:31.69 | 4:13.06 | 56394 | 75374
4 | 16:45.00 | 3:26.72 | 75375 | 90896
5 | 20:11.72 | 2:44.20 | 90897 | 103216
6 | 22:56.17 | 5:54.30 | 103217 | 129796
7 | 28:50.47 | 4:28.48 | 129797 | 149944
8 | 33:19.20 | 5:28.15 | 149945 | 174559
9 | 38:47.35 | 3:45.31 | 174560 | 191465
10 | 42:32.66 | 4:19.46 | 191466 | 210936
11 | 46:52.37 | 6:11.64 | 210937 | 238825

Характеристики диапазона извлечения и сообщения об ошибках

Выбранный диапазон

Имя файла F:\Загрузки\PN\Pangaea - Welcome To The Theatre...1998.wav

Пиковый уровень 100.0 %
Скорость извлечения 2.4 X
Качество диапазона 100.0 %
CRC теста 6703F2D8
CRC копии 6703F2D8
Копирование... OK

Ошибок не произошло

AccurateRip: сводка

Трек 1 : извлечено точно (доверие 1) [DF6A4C59] (AR v1)
Трек 2 : извлечено точно (доверие 1) [F5B50812] (AR v1)
Трек 3 : извлечено точно (доверие 1) [1772B5A8] (AR v1)
Трек 4 : извлечено точно (доверие 1) [9E0163B9] (AR v1)
Трек 5 : извлечено точно (доверие 1) [C5E66AEC] (AR v1)
Трек 6 : извлечено точно (доверие 1) [486967BC] (AR v1)
Трек 7 : извлечено точно (доверие 1) [6619259A] (AR v1)
Трек 8 : извлечено точно (доверие 1) [A725FF6C] (AR v1)
Трек 9 : извлечено точно (доверие 1) [37CC9BF6] (AR v1)
Трек 10 : извлечено точно (доверие 1) [61233FA3] (AR v1)
Трек 11 : извлечено точно (доверие 1) [7928B0EC] (AR v1)

Все треки извлечены точно

Конец отчёта
Коврики 300dpi в комплекте.
Progarchives info

Трекер:  [ 14-Окт-2012 11:10 ]

  

Скачать .torrent

Размер .torrent файла 15 KB


Размер: 369 MB
Хэш (hash) релиза: 2b21a6c16b3651cf17596f70164551e77ed128c4

Еще никто не оставлял запись к записи скачать торрент Pangaea - Welcome To The Theatre... . Будь первым!

!Обратная связь